<?xml version="1.0" standalone="no"?>
<!DOCTYPE svg PUBLIC "-//W3C//DTD SVG 1.1//EN" "http://www.w3.org/Graphics/SVG/1.1/DTD/svg11.dtd" >
<svg xmlns="http://www.w3.org/2000/svg" xmlns:xlink="http://www.w3.org/1999/xlink" version="1.1">
<metadata>
Created by FontForge 20170731 at Fri Aug  7 11:42:42 2020
 By Aleksey,,,
HTF Gotham\252 Copr. 2000 The Hoefler Type Foundry, Inc. Info: www.typography.com
</metadata>
<defs>
<font id="Gotham-Book" horiz-adv-x="1617" >
  <font-face 
    font-family="Gotham"
    font-weight="400"
    font-stretch="normal"
    units-per-em="2048"
    panose-1="2 0 5 4 5 0 0 2 0 4"
    ascent="1638"
    descent="-410"
    x-height="1059"
    cap-height="1434"
    bbox="-43 -334 2193 1858"
    underline-thickness="40"
    underline-position="-533"
    unicode-range="U+000D-FB02"
  />
<missing-glyph horiz-adv-x="748" 
d="M68 0v1365h544v-1365h-544zM136 68h408v1229h-408v-1229z" />
    <glyph glyph-name=".notdef" horiz-adv-x="748" 
d="M68 0v1365h544v-1365h-544zM136 68h408v1229h-408v-1229z" />
    <glyph glyph-name="glyph1" horiz-adv-x="0" 
 />
    <glyph glyph-name="uni000D" unicode="&#xd;" horiz-adv-x="614" 
 />
    <glyph glyph-name="space" unicode=" " horiz-adv-x="614" 
 />
    <glyph glyph-name="exclam" unicode="!" horiz-adv-x="555" 
d="M184 0h189v215h-189v-215zM186 1317l47 -911h89l49 911v117h-185v-117z" />
    <glyph glyph-name="quotedbl" unicode="&#x22;" horiz-adv-x="901" 
d="M133 877h86l166 546v11h-190zM532 877h86l166 546v11h-188z" />
    <glyph glyph-name="numbersign" unicode="#" horiz-adv-x="1433" 
d="M92 362h223l-61 -362h143l64 362h389l-62 -362h144l63 362h265v142h-242l76 434h245v141h-221l60 355h-144l-61 -355h-389l59 355h-143l-62 -355h-266v-141h244l-76 -434h-248v-142zM485 504l74 434h389l-74 -434h-389z" />
    <glyph glyph-name="dollar" unicode="$" horiz-adv-x="1302" 
d="M115 215q109 -92 227.5 -145.5t255.5 -65.5v-205h131v201q96 6 177 36t138.5 81t89 118.5t31.5 151.5q0 156 -104.5 251t-337.5 148v504q82 -14 158.5 -49t150.5 -98l88 123q-90 70 -182 111.5t-209 52.5v122h-131v-118q-94 -4 -173 -35t-136.5 -81t-89 -116.5
t-31.5 -146.5q0 -162 104.5 -254t331.5 -146v-512q-117 12 -211 61.5t-186 133.5zM326 1065q0 47 19.5 88t55 71.5t87 50t116.5 21.5v-481q-84 20 -138 46t-85 56.5t-43 67.5t-12 80zM723 137v490q86 -20 140.5 -45t87 -55.5t45 -67.5t12.5 -82q0 -102 -77 -168t-208 -72z
" />
    <glyph glyph-name="percent" unicode="%" horiz-adv-x="1708" 
d="M106 1081q0 -74 24 -139t66 -115.5t101 -80t133 -29.5t133.5 29.5t102.5 81t66.5 117.5t23.5 140t-23.5 139.5t-65.5 116t-101.5 80t-131.5 29.5q-74 0 -134 -29.5t-103 -81t-67 -118t-24 -140.5zM244 1085q0 51 13 97.5t37.5 80t58.5 53t77 19.5q39 0 74 -19.5t60.5 -53
t41 -80t15.5 -101.5q0 -53 -13.5 -98t-38 -79t-59.5 -53.5t-76 -19.5t-74.5 19.5t-60.5 53.5t-41 80t-14 101zM254 0h147l1051 1434h-145zM952 348q0 -74 23.5 -139.5t65.5 -115.5t101.5 -79.5t131.5 -29.5q74 0 134 29.5t102 80.5t65.5 117.5t23.5 140.5t-22.5 139.5
t-64.5 115.5t-101 80t-133 30t-133.5 -30t-102.5 -81t-66.5 -117.5t-23.5 -140.5zM1087 352q0 51 13.5 97.5t38 80t59.5 53t76 19.5q39 0 73.5 -19.5t61.5 -53t41 -80t14 -101.5q0 -53 -13 -98t-37.5 -79t-58.5 -53.5t-77 -19.5q-41 0 -75 19.5t-60.5 53.5t-41 80t-14.5 101
z" />
    <glyph glyph-name="ampersand" unicode="&#x26;" horiz-adv-x="1425" 
d="M92 383q0 -90 34 -165t94.5 -128t143 -81.5t179.5 -28.5q141 0 255.5 58t213.5 165l225 -232l123 95l-250 256q59 78 109.5 168t97.5 192l-133 61q-39 -90 -82 -169.5t-90 -149.5l-328 334q158 55 248 144t90 231q0 68 -26.5 127t-72.5 103t-109.5 69.5t-139.5 25.5
q-86 0 -155.5 -26.5t-119 -72.5t-77 -108.5t-27.5 -134.5q0 -86 35 -158.5t108 -158.5q-166 -66 -256 -168.5t-90 -247.5zM256 389q0 92 65.5 174t208.5 135l383 -395q-78 -86 -167 -136t-191 -50q-66 0 -121 20.5t-95 57t-61.5 86t-21.5 108.5zM451 1116q0 90 59 149.5
t158 59.5q88 0 145 -56.5t57 -144.5q0 -96 -69.5 -161.5t-206.5 -112.5q-41 43 -68.5 79t-44 66.5t-23.5 59t-7 61.5z" />
    <glyph glyph-name="quotesingle" unicode="'" horiz-adv-x="501" 
d="M133 877h88l166 546v11h-192z" />
    <glyph glyph-name="parenleft" unicode="(" horiz-adv-x="888" 
d="M139 588q0 -285 146.5 -504t421.5 -373l67 105q-236 150 -355.5 337t-119.5 435t119.5 435t355.5 337l-67 104q-274 -154 -421 -373t-147 -503z" />
    <glyph glyph-name="parenright" unicode=")" horiz-adv-x="888" 
d="M115 -184l67 -105q274 154 421 373t147 504t-146.5 504t-421.5 372l-67 -104q236 -150 355.5 -337t119.5 -435t-120 -435.5t-355 -336.5z" />
    <glyph glyph-name="asterisk" unicode="*" horiz-adv-x="880" 
d="M141 1016l56 -96l211 149l-21 -256h107l-21 256l211 -149l55 96l-237 108l237 111l-55 94l-211 -147l21 256h-107l21 -256l-211 147l-56 -94l238 -111z" />
    <glyph glyph-name="plus" unicode="+" horiz-adv-x="1310" 
d="M154 647h426v-422h151v422h426v148h-426v422h-151v-422h-426v-148z" />
    <glyph glyph-name="comma" unicode="," horiz-adv-x="501" 
d="M94 -178l25 -72q117 27 172 91.5t55 189.5v184h-188v-215h73q6 -66 -26.5 -107.5t-110.5 -70.5z" />
    <glyph glyph-name="hyphen" unicode="-" horiz-adv-x="835" 
d="M133 532h569v166h-569v-166z" />
    <glyph glyph-name="period" unicode="." horiz-adv-x="501" 
d="M158 0h188v215h-188v-215z" />
    <glyph glyph-name="slash" unicode="/" horiz-adv-x="1040" 
d="M-43 -262h145l951 1896h-146z" />
    <glyph glyph-name="zero" unicode="0" horiz-adv-x="1464" 
d="M127 715q0 -152 42 -286t121 -235.5t190.5 -160t250.5 -58.5q137 0 250 59.5t191.5 161t121.5 236.5t43 287t-42 286t-120.5 235t-190.5 159.5t-249 58.5q-139 0 -251.5 -59.5t-191.5 -160.5t-122 -236.5t-43 -286.5zM295 719q0 119 30.5 226.5t87 188t137.5 129
t181 48.5t181 -49.5t138.5 -131t88 -189t30.5 -226.5t-29.5 -226.5t-86 -188.5t-137 -129t-181.5 -48q-100 0 -182 48t-139.5 130t-88 190.5t-30.5 227.5z" />
    <glyph glyph-name="one" unicode="1" horiz-adv-x="733" 
d="M57 1323l39 -131l271 84v-1276h159v1444h-118z" />
    <glyph glyph-name="two" unicode="2" horiz-adv-x="1226" 
d="M98 0h1002v147h-760l383 340q94 82 161.5 151t112.5 133.5t66.5 130t21.5 145.5q0 88 -32.5 162.5t-92 129t-140.5 85t-179 30.5q-94 0 -169 -20.5t-135.5 -59.5t-111.5 -96t-100 -129l119 -86q86 121 174 183.5t211 62.5q57 0 110.5 -19.5t92 -55.5t62.5 -86t24 -114
q0 -53 -15.5 -103t-51.5 -102.5t-93.5 -112t-139.5 -132.5l-520 -459v-125z" />
    <glyph glyph-name="three" unicode="3" horiz-adv-x="1255" 
d="M102 231q88 -115 221.5 -185.5t313.5 -70.5q100 0 187 32t151.5 89.5t102.5 137t38 176.5q0 98 -39 171.5t-103.5 123t-150.5 76t-180 34.5l451 500v119h-916v-146h701l-453 -510l33 -96h92q178 0 289.5 -71.5t111.5 -207.5q0 -63 -24.5 -115t-66.5 -89t-99 -56.5
t-123 -19.5q-133 0 -234.5 55t-185.5 158z" />
    <glyph glyph-name="four" unicode="4" horiz-adv-x="1374" 
d="M88 457l41 -117h756v-340h155v340h224v135h-224v969h-141zM283 475l602 739v-739h-602z" />
    <glyph glyph-name="five" unicode="5" horiz-adv-x="1253" 
d="M109 203q98 -98 228 -163t284 -65q113 0 207 34t161.5 96.5t105.5 149.5t38 194q0 102 -38 184t-105.5 138t-158 87t-194.5 31q-90 0 -154.5 -17.5t-128.5 -46.5l31 459h684v150h-825l-41 -699l108 -71q63 35 136 58t165 23q80 0 145.5 -22.5t113 -62t73 -95t25.5 -123.5
q0 -70 -25.5 -128t-71 -101t-110 -66.5t-139.5 -23.5q-111 0 -212.5 52t-195.5 144z" />
    <glyph glyph-name="six" unicode="6" horiz-adv-x="1325" 
d="M125 678q0 -111 12.5 -196t35 -150.5t56 -116.5t76.5 -94q68 -68 163 -107t214 -39q109 0 203 36t162.5 99.5t108.5 151.5t40 193q0 100 -40 182t-107.5 140.5t-157.5 89t-191 30.5q-78 0 -140 -18.5t-112.5 -48t-88 -69.5t-66.5 -83q0 139 28.5 255t83 200t132 131
t176.5 47q98 0 178 -37t160 -105l94 125q-94 78 -194.5 121t-229.5 43q-141 0 -252 -60.5t-187.5 -166t-116.5 -247.5t-40 -306zM322 442q0 61 25.5 117.5t72.5 101t113.5 71t146.5 26.5q78 0 142.5 -23.5t110.5 -64.5t71.5 -97t25.5 -124q0 -70 -24.5 -130.5t-69.5 -104.5
t-108.5 -69.5t-143.5 -25.5t-146.5 24.5t-114.5 67.5t-74.5 102.5t-26.5 128.5z" />
    <glyph glyph-name="seven" unicode="7" horiz-adv-x="1220" 
d="M139 1286h789l-647 -1286h180l651 1313v121h-973v-148z" />
    <glyph glyph-name="eight" unicode="8" horiz-adv-x="1290" 
d="M106 387q0 -90 41 -166t114 -129t171 -82.5t213 -29.5t213 29.5t171 82.5t114 129t41 168q0 129 -83 217t-212 135q49 23 94 54.5t79 71.5t53.5 91.5t19.5 114.5q0 84 -40 153.5t-106.5 121t-156 79t-187.5 27.5t-187 -27.5t-155.5 -79t-106.5 -121t-40 -153.5
q0 -63 19.5 -114.5t53 -91.5t78.5 -71.5t94 -54.5q-129 -47 -212 -136t-83 -218zM270 391q0 61 29 111.5t80 86.5t119.5 56.5t146.5 20.5t146.5 -20.5t119 -56.5t80 -86.5t29.5 -111.5q0 -55 -25.5 -104t-74 -86t-118 -58.5t-157.5 -21.5t-157.5 21.5t-117.5 58.5t-74 86
t-26 104zM317 1063q0 55 25 100t69 79t104 52.5t130 18.5t130.5 -18.5t104.5 -52.5t68.5 -80t24.5 -99q0 -59 -25.5 -107.5t-69.5 -83t-104.5 -54t-128.5 -19.5t-128 19.5t-104 54t-70 83t-26 107.5z" />
    <glyph glyph-name="nine" unicode="9" horiz-adv-x="1325" 
d="M129 969q0 -98 37 -180t102.5 -141.5t157.5 -92.5t203 -33q150 0 248 67.5t157 162.5q2 -137 -27.5 -253t-86 -199t-136 -130t-176.5 -47q-96 0 -180 38t-172 115l-94 -124q92 -76 196.5 -126.5t245.5 -50.5q133 0 242.5 57.5t188.5 161t122 246t43 314.5
q0 109 -12 193.5t-35 151t-55.5 118t-75.5 94.5q-70 70 -162 108.5t-215 38.5q-115 0 -210 -38t-162.5 -104.5t-105.5 -155.5t-38 -191zM295 977q0 68 23.5 129t67.5 107.5t108.5 74t144.5 27.5t147.5 -25.5t115.5 -69.5t75 -103.5t27 -129.5q0 -61 -25 -120.5t-71 -104.5
t-112.5 -72.5t-148.5 -27.5q-78 0 -143.5 23.5t-111.5 65.5t-71.5 99t-25.5 127z" />
    <glyph glyph-name="colon" unicode=":" horiz-adv-x="522" 
d="M168 0h188v215h-188v-215zM168 844h188v215h-188v-215z" />
    <glyph glyph-name="semicolon" unicode=";" horiz-adv-x="522" 
d="M104 -178l25 -72q117 27 172 91.5t55 189.5v184h-188v-215h74q6 -66 -27 -107.5t-111 -70.5zM168 844h188v215h-188v-215z" />
    <glyph glyph-name="less" unicode="&#x3c;" horiz-adv-x="1310" 
d="M147 653l961 -477v160l-789 387l789 385v158l-961 -478v-135z" />
    <glyph glyph-name="equal" unicode="=" horiz-adv-x="1310" 
d="M184 406h942v151h-942v-151zM184 885h942v151h-942v-151z" />
    <glyph glyph-name="greater" unicode="&#x3e;" horiz-adv-x="1310" 
d="M203 176l960 477v135l-960 478v-160l788 -387l-788 -385v-158z" />
    <glyph glyph-name="question" unicode="?" horiz-adv-x="1099" 
d="M61 1214l105 -100q78 92 168 142.5t205 50.5q70 0 125 -20.5t94 -57.5t59.5 -86t20.5 -105q0 -131 -103.5 -208.5t-304.5 -81.5l-10 -11l31 -331h104l20 221q88 12 165 42.5t135.5 82t92 124t33.5 168.5q0 88 -32.5 163t-93 129.5t-144.5 85t-188 30.5
q-164 0 -278.5 -65.5t-203.5 -172.5zM408 0h188v215h-188v-215z" />
    <glyph glyph-name="at" unicode="@" horiz-adv-x="2007" 
d="M109 561q0 -184 68.5 -346t191.5 -283.5t289.5 -192.5t363.5 -71q160 0 292 41t251 113l-33 55q-119 -70 -237.5 -104.5t-272.5 -34.5q-184 0 -339 64.5t-265.5 176t-173 261t-62.5 321.5q0 170 62.5 320.5t173 263t261 178.5t327.5 66q176 0 325.5 -62.5t259 -167
t172 -238t62.5 -274.5q0 -109 -24.5 -188.5t-64.5 -132t-91.5 -77t-106.5 -24.5q-84 0 -129 44t-45 122q0 16 3 49t11 76l82 465l-137 18l-27 -141q-18 33 -44.5 63.5t-63.5 54t-84 38t-107 14.5q-86 0 -171 -39t-152.5 -107.5t-108.5 -161.5t-41 -202q0 -84 29 -152.5
t79 -117.5t116.5 -76t142.5 -27q115 0 196.5 50.5t141.5 121.5q29 -78 101.5 -125t185.5 -47q70 0 139 30t122.5 91.5t87 155.5t33.5 225q0 160 -68.5 307.5t-189 259t-283.5 178t-351 66.5t-352.5 -71.5t-285 -193.5t-190 -285t-69.5 -347zM672 528q0 80 28.5 147.5
t74.5 118t106.5 79t126.5 28.5q53 0 99 -19.5t80 -54t52 -83t18 -103.5q0 -72 -27.5 -138.5t-73.5 -117.5t-107.5 -82t-126.5 -31q-111 0 -180.5 67t-69.5 189z" />
    <glyph glyph-name="A" unicode="A" 
d="M80 0h166l170 379h780l168 -379h174l-653 1444h-152zM479 524l328 731l326 -731h-654z" />
    <glyph glyph-name="B" unicode="B" horiz-adv-x="1478" 
d="M203 0h637q117 0 213 26.5t164.5 77t105.5 124t37 165.5q0 74 -24.5 131.5t-65.5 98.5t-97.5 70.5t-119.5 47.5q43 18 83 46t72.5 69t52 94.5t19.5 124.5q0 82 -33 148.5t-94 112.5t-147.5 72t-192.5 26h-610v-1434zM362 145v506h453q188 0 284.5 -64.5t96.5 -183.5
q0 -123 -94 -190.5t-258 -67.5h-482zM362 795v493h437q154 0 235.5 -63.5t81.5 -171.5q0 -127 -92.5 -192.5t-237.5 -65.5h-424z" />
    <glyph glyph-name="C" unicode="C" horiz-adv-x="1511" 
d="M139 715q0 -156 54.5 -291t150.5 -234.5t227 -157t287 -57.5q98 0 178 18.5t149.5 51.5t130.5 79t116 103l-107 105q-102 -98 -208.5 -152.5t-254.5 -54.5q-119 0 -220 46t-176 126t-117 188.5t-42 233.5t42 232.5t117 187.5t176 125t220 45q147 0 253 -55.5t198 -141.5
l110 119q-53 51 -110.5 93t-125 71.5t-146 46t-177.5 16.5q-158 0 -291 -58.5t-229 -159.5t-150.5 -236.5t-54.5 -288.5z" />
    <glyph glyph-name="D" unicode="D" horiz-adv-x="1601" 
d="M203 0h497q168 0 308.5 55.5t242 151.5t156.5 228t55 284t-55 283t-156.5 227t-242 150.5t-308.5 54.5h-497v-1434zM365 150v1134h335q135 0 246 -44t187.5 -121t118.5 -181t42 -223q0 -121 -42 -223.5t-118.5 -179t-187 -119.5t-246.5 -43h-335z" />
    <glyph glyph-name="E" unicode="E" horiz-adv-x="1372" 
d="M203 0h1046v147h-884v502h782v148h-782v489h874v148h-1036v-1434z" />
    <glyph glyph-name="F" unicode="F" horiz-adv-x="1343" 
d="M203 0h162v625h776v147h-776v512h868v150h-1030v-1434z" />
    <glyph glyph-name="G" unicode="G" horiz-adv-x="1605" 
d="M139 715q0 -154 50.5 -289t145.5 -235.5t229 -158t304 -57.5q182 0 329 65t247 155v571h-592v-145h436v-357q-74 -59 -182.5 -101t-231.5 -42q-131 0 -235 45t-178 125t-114 189.5t-40 238.5q0 121 41 228.5t112.5 187t172 127t219.5 47.5q76 0 138.5 -12.5t114.5 -34
t97 -51t86 -66.5l105 123q-53 45 -109.5 80.5t-121 60.5t-139.5 37t-165 12q-162 0 -294 -60.5t-226 -162.5t-146.5 -237.5t-52.5 -282.5z" />
    <glyph glyph-name="H" unicode="H" horiz-adv-x="1556" 
d="M203 0h162v645h827v-645h162v1434h-162v-637h-827v637h-162v-1434z" />
    <glyph glyph-name="I" unicode="I" horiz-adv-x="595" 
d="M217 0h162v1434h-162v-1434z" />
    <glyph glyph-name="J" unicode="J" horiz-adv-x="1132" 
d="M63 233q68 -111 174.5 -182t268.5 -71q96 0 178 30.5t141.5 93t93 155.5t33.5 216v959h-164v-961q0 -170 -79.5 -257t-200.5 -87q-113 0 -187.5 52t-140.5 153z" />
    <glyph glyph-name="K" unicode="K" horiz-adv-x="1472" 
d="M203 0h162v385l305 309l551 -694h202l-641 807l615 627h-209l-823 -856v856h-162v-1434z" />
    <glyph glyph-name="L" unicode="L" horiz-adv-x="1267" 
d="M203 0h968v150h-806v1284h-162v-1434z" />
    <glyph glyph-name="M" unicode="M" horiz-adv-x="1777" 
d="M203 0h157v1159l523 -766h8l522 768v-1161h162v1434h-164l-522 -783l-522 783h-164v-1434z" />
    <glyph glyph-name="N" unicode="N" 
d="M203 0h157v1176l926 -1176h129v1434h-158v-1149l-903 1149h-151v-1434z" />
    <glyph glyph-name="O" unicode="O" horiz-adv-x="1740" 
d="M139 715q0 -150 52.5 -284t148.5 -235.5t230.5 -161t297.5 -59.5q164 0 299.5 60.5t231.5 163t149.5 236.5t53.5 284t-52.5 284t-148.5 235t-230.5 160.5t-298.5 59.5t-299 -60.5t-231 -162.5t-149.5 -236.5t-53.5 -283.5zM307 719q0 123 42 230.5t116 187.5t177 126
t226 46t226.5 -47.5t179.5 -127t118 -188t42 -231.5t-42 -230.5t-116 -187.5t-177.5 -126t-226.5 -46t-226 47t-179 127t-118 188.5t-42 231.5z" />
    <glyph glyph-name="P" unicode="P" horiz-adv-x="1368" 
d="M203 0h162v506h348q115 0 217 29.5t179 89t122 147.5t45 205q0 106 -38 191t-108.5 143.5t-170 90.5t-220.5 32h-536v-1434zM365 653v631h362q174 0 279.5 -78.5t105.5 -234.5q0 -72 -27.5 -130.5t-80 -100.5t-125 -64.5t-160.5 -22.5h-354z" />
    <glyph glyph-name="Q" unicode="Q" horiz-adv-x="1740" 
d="M139 715q0 -150 52.5 -284t148.5 -235.5t230.5 -161t297.5 -59.5q135 0 248 41t205 113l188 -172l111 121l-190 158q84 98 128 223t44 260q0 150 -52.5 284t-148.5 235t-230.5 160.5t-298.5 59.5t-299 -60.5t-231 -162.5t-149.5 -236.5t-53.5 -283.5zM307 719
q0 123 42 230.5t116 187.5t177 126t226 46t226.5 -47.5t179.5 -127t118 -188t42 -231.5q0 -106 -33 -201.5t-92 -171.5l-265 240l-108 -121l266 -228q-66 -51 -149.5 -79.5t-180.5 -28.5q-123 0 -226 47t-179 127t-118 188.5t-42 231.5z" />
    <glyph glyph-name="R" unicode="R" horiz-adv-x="1480" 
d="M203 0h162v557h409l416 -557h199l-441 586q84 14 156 49t124 87t80.5 122.5t28.5 161.5q0 96 -36.5 175t-104.5 135t-163 87t-214 31h-616v-1434zM365 702v582h442q174 0 270.5 -75t96.5 -210q0 -70 -28 -125t-77 -93t-116.5 -58.5t-147.5 -20.5h-440z" />
    <glyph glyph-name="S" unicode="S" horiz-adv-x="1310" 
d="M109 209q129 -117 271 -173t314 -56q106 0 196.5 28.5t155 81.5t101.5 129t37 168q0 166 -114 260t-353 148q-119 25 -195 52t-119 61t-59 75t-16 92q0 49 21.5 92t61.5 74t96 49.5t126 18.5q111 0 212 -37t202 -119l94 125q-111 88 -228.5 132t-275.5 44
q-102 0 -188.5 -29.5t-149.5 -82t-98 -124t-35 -157.5q0 -90 28.5 -155.5t88 -115t150.5 -84t214 -61.5q113 -25 185.5 -51.5t113.5 -59t57.5 -72.5t16.5 -91q0 -111 -87 -178.5t-233 -67.5q-150 0 -264 50t-227 153z" />
    <glyph glyph-name="T" unicode="T" horiz-adv-x="1327" 
d="M100 1284h482v-1284h163v1284h482v150h-1127v-150z" />
    <glyph glyph-name="U" unicode="U" horiz-adv-x="1554" 
d="M180 600q0 -152 43 -268.5t122 -195.5t188.5 -119t242.5 -40q135 0 244.5 40t188.5 120t122 199t43 276v822h-162v-834q0 -236 -116.5 -354.5t-315.5 -118.5q-207 0 -322.5 125t-115.5 358v824h-162v-834z" />
    <glyph glyph-name="V" unicode="V" horiz-adv-x="1536" 
d="M80 1434l616 -1444h144l616 1444h-174l-512 -1235l-510 1235h-180z" />
    <glyph glyph-name="W" unicode="W" horiz-adv-x="2267" 
d="M92 1434l512 -1444h135l396 1163l393 -1163h137l512 1444h-170l-410 -1194l-393 1198h-133l-393 -1198l-410 1194h-176z" />
    <glyph glyph-name="X" unicode="X" horiz-adv-x="1484" 
d="M94 0h187l458 616l459 -616h193l-551 733l530 701h-188l-437 -586l-440 586h-190l530 -703z" />
    <glyph glyph-name="Y" unicode="Y" horiz-adv-x="1466" 
d="M55 1434l596 -867v-567h164v569l596 865h-188l-488 -717l-483 717h-197z" />
    <glyph glyph-name="Z" unicode="Z" horiz-adv-x="1419" 
d="M137 0h1149v145h-930l930 1180v109h-1118v-146h897l-928 -1179v-109z" />
    <glyph glyph-name="bracketleft" unicode="[" horiz-adv-x="899" 
d="M193 -266h585v123h-436v1454h436v123h-585v-1700z" />
    <glyph glyph-name="backslash" unicode="\" horiz-adv-x="1040" 
d="M-12 1634l950 -1896h145l-950 1896h-145z" />
    <glyph glyph-name="bracketright" unicode="]" horiz-adv-x="899" 
d="M121 -143v-123h586v1700h-586v-123h438v-1454h-438z" />
    <glyph glyph-name="asciicircum" unicode="^" horiz-adv-x="1024" 
d="M133 1010h135l242 315l242 -315h139l-318 428h-122z" />
    <glyph glyph-name="underscore" unicode="_" horiz-adv-x="1228" 
d="M-4 -199v-129h1237v129h-1237z" />
    <glyph glyph-name="grave" unicode="`" horiz-adv-x="1024" 
d="M295 1440l231 -221h127l-194 297z" />
    <glyph glyph-name="a" unicode="a" horiz-adv-x="1185" 
d="M96 309q0 -84 34 -145.5t90 -103.5t127 -62.5t145 -20.5q141 0 234 55.5t148 127.5v-160h152v647q0 211 -116.5 318.5t-334.5 107.5q-117 0 -206.5 -23.5t-178.5 -64.5l48 -129q74 35 150.5 56.5t170.5 21.5q150 0 232.5 -73t82.5 -216v-37q-72 20 -147.5 32.5
t-177.5 12.5q-100 0 -183 -22.5t-143.5 -65.5t-93.5 -107.5t-33 -148.5zM256 315q0 102 79.5 162t229.5 60q98 0 175 -14.5t137 -30.5v-103q0 -63 -28 -115.5t-76 -90.5t-112.5 -59.5t-138.5 -21.5q-53 0 -101 14.5t-85 42t-58.5 66.5t-21.5 90z" />
    <glyph glyph-name="b" unicode="b" horiz-adv-x="1359" 
d="M176 0h158v203q31 -45 70.5 -86t89 -72t111 -49.5t134.5 -18.5q96 0 187.5 38t162 109t113.5 173t43 233t-43 233.5t-114.5 173.5t-162.5 107.5t-186 36.5q-74 0 -134 -19.5t-109.5 -51t-89 -74.5t-72.5 -90v649h-158v-1495zM328 530q0 92 31.5 168t86 129.5t123 83
t142.5 29.5q76 0 143.5 -28.5t118.5 -83t80.5 -130.5t29.5 -170q0 -96 -29.5 -172.5t-79.5 -129t-119 -80t-144 -27.5q-74 0 -142.5 29.5t-123 83t-86 130t-31.5 168.5z" />
    <glyph glyph-name="c" unicode="c" horiz-adv-x="1169" 
d="M111 526q0 -113 41 -213t113.5 -175t172 -119t215.5 -44q150 0 251 57.5t181 147.5l-100 94q-63 -68 -142 -112.5t-181 -44.5q-84 0 -155 31.5t-123 88t-82 132t-30 161.5t29 161t80 131.5t120.5 88t149.5 31.5q109 0 183.5 -47t138.5 -113l104 111q-37 39 -80 73.5
t-94 60.5t-112.5 40t-137.5 14q-117 0 -216 -44t-171.5 -119.5t-113.5 -177t-41 -214.5z" />
    <glyph glyph-name="d" unicode="d" horiz-adv-x="1359" 
d="M115 528q0 -131 43 -233t114.5 -173t161.5 -108t187 -37q74 0 134 18.5t109 51.5t89 76t73 90v-213h158v1495h-158v-639q-31 45 -71 86t-89 71.5t-110.5 49t-134.5 18.5q-96 0 -186.5 -37.5t-162 -108.5t-114.5 -173.5t-43 -233.5zM276 530q0 96 30 173t80 129.5
t117.5 80t145.5 27.5q74 0 142.5 -29.5t123 -83t86 -129.5t31.5 -168t-31.5 -168.5t-86 -130t-123 -83t-142.5 -29.5q-76 0 -143.5 28.5t-118.5 83t-81 130t-30 169.5z" />
    <glyph glyph-name="e" unicode="e" horiz-adv-x="1212" 
d="M111 528q0 -123 42 -225t113.5 -175t167.5 -113t205 -40q152 0 254 54.5t182 144.5l-98 88q-66 -68 -144.5 -108.5t-189.5 -40.5q-70 0 -133.5 23.5t-114.5 69.5t-84 112.5t-41 152.5h840q2 14 2 27v22q0 117 -32.5 219.5t-96 178t-156 119.5t-209.5 44
q-111 0 -203.5 -43t-160.5 -117.5t-105.5 -176t-37.5 -216.5zM270 588q8 78 37 143.5t74 113.5t104.5 75.5t128.5 27.5q80 0 140.5 -29.5t102.5 -78.5t65.5 -115t29.5 -137h-682z" />
    <glyph glyph-name="f" unicode="f" horiz-adv-x="751" 
d="M90 920h146v-920h157v920h334v135h-336v86q0 225 184 225q41 0 76 -7t78 -20v138q-39 14 -79 20t-95 6q-154 0 -236.5 -90t-82.5 -264v-92h-146v-137z" />
    <glyph glyph-name="g" unicode="g" horiz-adv-x="1359" 
d="M115 580q0 -117 42 -209t111.5 -156.5t158.5 -98.5t185 -34q145 0 245.5 65.5t170.5 157.5v-125q0 -186 -104.5 -281.5t-280.5 -95.5q-115 0 -215 35t-192 101l-72 -123q106 -74 227 -111t254 -37q123 0 222.5 33t170 97.5t108.5 160.5t38 225v875h-158v-191
q-33 43 -74 82t-91 68t-112.5 46t-136.5 17q-94 0 -184 -34.5t-159.5 -99t-111.5 -158t-42 -209.5zM276 584q0 82 29 148.5t79 113.5t116.5 71.5t142.5 24.5t145.5 -25.5t124 -72.5t87 -113.5t32.5 -148.5t-32.5 -148.5t-87 -114t-124 -73t-145.5 -25.5q-74 0 -140.5 25.5
t-116.5 74t-80 115t-30 148.5z" />
    <glyph glyph-name="h" unicode="h" horiz-adv-x="1261" 
d="M176 0h158v606q0 74 23.5 135.5t66.5 105.5t101.5 67.5t125.5 23.5q141 0 217 -86t76 -234v-618h158v657q0 94 -27.5 172t-80 134.5t-127 87t-171.5 30.5q-137 0 -223 -60t-139 -147v621h-158v-1495z" />
    <glyph glyph-name="i" unicode="i" horiz-adv-x="538" 
d="M180 1290h180v174h-180v-174zM190 0h158v1059h-158v-1059z" />
    <glyph glyph-name="j" unicode="j" horiz-adv-x="538" 
d="M-8 -195v-129q27 -6 48 -8t50 -2q121 0 189.5 65.5t68.5 207.5v1120h-158v-1118q0 -74 -33.5 -108t-86.5 -34q-16 0 -38 1t-40 5zM180 1290h180v174h-180v-174z" />
    <glyph glyph-name="k" unicode="k" horiz-adv-x="1165" 
d="M176 0h158v276l215 218l379 -494h188l-459 604l445 455h-197l-571 -596v1032h-158v-1495z" />
    <glyph glyph-name="l" unicode="l" horiz-adv-x="538" 
d="M190 0h158v1495h-158v-1495z" />
    <glyph glyph-name="m" unicode="m" horiz-adv-x="1947" 
d="M176 0h158v604q0 74 22.5 134.5t62.5 105.5t93 69.5t117 24.5q127 0 199.5 -83t72.5 -232v-623h156v610q0 78 23.5 139.5t63.5 103.5t93 63.5t113 21.5q129 0 201.5 -83t72.5 -237v-618h158v655q0 199 -104.5 312.5t-288.5 113.5q-70 0 -126.5 -16t-101.5 -45t-80.5 -68
t-64.5 -82q-43 90 -127 150.5t-213 60.5q-68 0 -119 -16t-92 -44t-73 -64.5t-58 -75.5v178h-158v-1059z" />
    <glyph glyph-name="n" unicode="n" horiz-adv-x="1261" 
d="M176 0h158v606q0 74 23.5 135.5t66.5 105.5t101.5 67.5t125.5 23.5q141 0 217 -86t76 -234v-618h158v657q0 94 -27.5 172t-80 134.5t-127 87t-171.5 30.5q-137 0 -223 -60t-139 -147v185h-158v-1059z" />
    <glyph glyph-name="o" unicode="o" horiz-adv-x="1323" 
d="M111 526q0 -113 41 -213t114.5 -175t174 -119t218.5 -44q119 0 221.5 44t176 120t115.5 177t42 214t-40.5 213.5t-114.5 175t-175.5 118.5t-219.5 44q-121 0 -222.5 -44t-175 -119.5t-114.5 -177t-41 -214.5zM272 530q0 86 29 161t79 131.5t121.5 88t157.5 31.5
q84 0 156 -32.5t125 -89t83 -132.5t30 -162t-29 -160.5t-80 -130t-122.5 -87t-157.5 -31.5q-84 0 -156 32.5t-124 88t-82 131t-30 161.5z" />
    <glyph glyph-name="p" unicode="p" horiz-adv-x="1359" 
d="M176 -328h158v531q31 -45 70.5 -86t89 -72t111 -49.5t134.5 -18.5q96 0 187.5 38t162 109t113.5 173t43 233t-43 233.5t-114.5 173.5t-162.5 107.5t-186 36.5q-74 0 -134 -19.5t-109.5 -51t-89 -74.5t-72.5 -90v213h-158v-1387zM328 530q0 92 31.5 168t86 129.5t123 83
t142.5 29.5q76 0 143.5 -28.5t118.5 -83t80.5 -130.5t29.5 -170q0 -96 -29.5 -172.5t-79.5 -129t-119 -80t-144 -27.5q-74 0 -142.5 29.5t-123 83t-86 130t-31.5 168.5z" />
    <glyph glyph-name="q" unicode="q" horiz-adv-x="1359" 
d="M115 528q0 -131 43 -233t114.5 -173t161.5 -108t187 -37q74 0 134 18.5t109 51.5t89 76t73 90v-541h158v1387h-158v-203q-31 45 -71 86t-89 71.5t-110.5 49t-134.5 18.5q-96 0 -186.5 -37.5t-162 -108.5t-114.5 -173.5t-43 -233.5zM276 530q0 96 30 173t80 129.5
t117.5 80t145.5 27.5q74 0 142.5 -29.5t123 -83t86 -129.5t31.5 -168t-31.5 -168.5t-86 -130t-123 -83t-142.5 -29.5q-76 0 -143.5 28.5t-118.5 83t-81 130t-30 169.5z" />
    <glyph glyph-name="r" unicode="r" horiz-adv-x="829" 
d="M176 0h158v422q0 119 32.5 210t90 152.5t134.5 92t163 30.5h12v170h-13q-69 -1 -129 -19q-66 -20 -120.5 -60t-98 -95t-71.5 -121v277h-158v-1059z" />
    <glyph glyph-name="s" unicode="s" horiz-adv-x="1019" 
d="M88 135q90 -72 207 -113.5t231 -41.5q80 0 148.5 21.5t119 62t80 99t29.5 134.5v4q0 72 -29.5 121t-79 84t-109.5 57.5t-122 40.5q-53 16 -102 32.5t-87 37t-60.5 48.5t-22.5 64v5q0 66 55 109.5t150 43.5q78 0 158.5 -27.5t154.5 -74.5l72 119q-82 53 -182.5 84.5
t-198.5 31.5q-78 0 -144.5 -21.5t-114.5 -61.5t-75 -96t-27 -124v-4q0 -74 32 -123t82 -82t112.5 -54.5t123.5 -39.5q51 -14 99.5 -30.5t85.5 -38t58.5 -50t21.5 -67.5v-4q0 -78 -61.5 -123t-157.5 -45q-94 0 -187.5 34.5t-179.5 100.5z" />
    <glyph glyph-name="t" unicode="t" horiz-adv-x="827" 
d="M84 920h147v-639q0 -80 22.5 -137.5t62.5 -93.5t95.5 -52t118.5 -16q57 0 103.5 11t87.5 34v135q-41 -20 -77 -28.5t-77 -8.5q-80 0 -129 39t-49 137v619h336v139h-336v319h-158v-319h-147v-139z" />
    <glyph glyph-name="u" unicode="u" horiz-adv-x="1261" 
d="M160 401q0 -94 27.5 -171.5t79.5 -134t127 -87.5t171 -31q137 0 223 60.5t140 146.5v-184h155v1059h-155v-606q0 -74 -24.5 -135.5t-66.5 -105.5t-100.5 -67.5t-126.5 -23.5q-141 0 -217 86t-76 233v619h-157v-658z" />
    <glyph glyph-name="v" unicode="v" horiz-adv-x="1202" 
d="M72 1059l458 -1067h140l460 1067h-169l-359 -879l-356 879h-174z" />
    <glyph glyph-name="w" unicode="w" horiz-adv-x="1763" 
d="M86 1059l371 -1067h139l287 835l284 -835h138l372 1067h-164l-278 -850l-287 854h-131l-285 -854l-278 850h-168z" />
    <glyph glyph-name="x" unicode="x" horiz-adv-x="1175" 
d="M80 0h176l330 432l327 -432h183l-418 543l401 516h-176l-313 -410l-314 410h-180l400 -520z" />
    <glyph glyph-name="y" unicode="y" horiz-adv-x="1210" 
d="M70 1059l481 -1055q-47 -113 -96 -156t-121 -43q-51 0 -89 9.5t-77 29.5l-53 -125q53 -27 106 -40t119 -13q119 0 202 67.5t150 231.5l445 1094h-168l-340 -883l-385 883h-174z" />
    <glyph glyph-name="z" unicode="z" horiz-adv-x="1138" 
d="M115 0h917v133h-704l704 825v101h-893v-133h678l-702 -826v-100z" />
    <glyph glyph-name="braceleft" unicode="{" horiz-adv-x="989" 
d="M115 526h53q137 0 189.5 -63.5t52.5 -181.5v-35t-1 -45.5t-1 -42.5v-33q0 -80 17 -145.5t66.5 -116.5t135.5 -89t225 -63l25 105q-109 27 -171.5 56.5t-96.5 67t-43 87t-9 118.5q0 31 1 76t1 78q0 63 -14.5 110.5t-41 81t-66.5 57t-91 40.5q98 31 155.5 95.5t57.5 193.5
q0 33 -1 77.5t-1 75.5q0 70 9 119t43 87t96.5 66.5t171.5 57.5l-25 104q-139 -25 -225 -62.5t-135.5 -88.5t-66.5 -117t-17 -145v-33q0 -20 1 -44t1 -46v-33q0 -121 -52.5 -183.5t-189.5 -62.5h-53v-123z" />
    <glyph glyph-name="bar" unicode="|" horiz-adv-x="620" 
d="M244 -262h133v1896h-133v-1896z" />
    <glyph glyph-name="braceright" unicode="}" horiz-adv-x="989" 
d="M111 -184l26 -105q137 25 224.5 63t136.5 89t66.5 116.5t17.5 145.5v33q0 20 -1 42.5t-1 45.5v35q0 121 51 183t188 62h53v123h-53q-137 0 -188 62.5t-51 183.5v33q0 23 1 46t1 44v33q0 80 -17.5 145.5t-66.5 116.5t-136.5 89t-224.5 62l-26 -104q109 -29 172 -57.5
t97 -66.5t43 -87t9 -119q0 -31 -1 -76t-1 -77q0 -129 55.5 -192.5t157.5 -96.5q-98 -31 -155.5 -95.5t-57.5 -193.5q0 -33 1 -78t1 -76q0 -70 -9 -119t-43 -86.5t-97 -67t-172 -56.5z" />
    <glyph glyph-name="asciitilde" unicode="~" horiz-adv-x="968" 
d="M150 512l96 -27q23 57 44 80t62 23q27 0 59.5 -13.5t69.5 -29t74 -28.5t72 -13q74 0 117.5 50t74.5 167l-94 27q-23 -57 -44.5 -80t-62.5 -23q-27 0 -60.5 13.5t-69 28.5t-73.5 28.5t-71 13.5q-74 0 -119 -50t-75 -167z" />
    <glyph glyph-name="uni00A0" unicode="&#xa0;" horiz-adv-x="614" 
 />
    <glyph glyph-name="exclamdown" unicode="&#xa1;" horiz-adv-x="555" 
d="M184 1219h189v215h-189v-215zM186 0h185v117l-49 911h-89l-47 -911v-117z" />
    <glyph glyph-name="cent" unicode="&#xa2;" horiz-adv-x="1189" 
d="M119 725q0 -90 26.5 -171t73.5 -149.5t113.5 -120t146.5 -79.5l-45 -217h133l37 190q16 -4 29 -4h31q145 0 246.5 57.5t181.5 149.5l-99 92q-61 -66 -139 -111t-176 -47q-14 0 -26.5 1t-24.5 3l153 801q63 -18 110.5 -55t92.5 -82l102 107q-53 59 -117.5 104t-152.5 68
l37 184h-133l-31 -166h-26q-115 0 -214.5 -44t-172 -120t-114.5 -177t-42 -214zM279 729q0 86 28.5 160t78.5 129t118.5 88t148.5 33h13l-152 -791q-104 47 -169.5 149.5t-65.5 231.5z" />
    <glyph glyph-name="sterling" unicode="&#xa3;" horiz-adv-x="1318" 
d="M137 0h1061v143h-727v461h571v141h-571v222q0 156 75 247t214 91q113 0 184.5 -47.5t130.5 -122.5l125 98q-72 94 -174 157.5t-264 63.5q-109 0 -193 -35t-141 -99.5t-88 -154.5t-31 -198v-222h-172v-141h172v-467l-172 -43v-94z" />
    <glyph glyph-name="currency" unicode="&#xa4;" horiz-adv-x="1474" 
d="M115 485h186q27 -115 80 -208t128 -160.5t169 -104.5t203 -37q86 0 157.5 22.5t131 62.5t107.5 95.5t91 118.5l-117 82q-74 -109 -158.5 -172t-205.5 -63q-154 0 -263.5 99t-154.5 265h530v129h-557q-2 27 -3 51.5t-1 53.5t2 58.5t6 58.5h553v127h-526q47 156 150.5 253
t240.5 97q66 0 118 -14.5t97 -43t84 -70.5t78 -95l123 88q-41 61 -89 112t-107.5 88t-133 58.5t-164.5 21.5q-104 0 -194 -37t-162 -103.5t-125 -157.5t-82 -197h-192v-127h170q-4 -29 -6.5 -60t-2.5 -61v-51q0 -25 5 -50h-166v-129z" />
    <glyph glyph-name="yen" unicode="&#xa5;" horiz-adv-x="1404" 
d="M55 1434l520 -762h-370v-127h420v-180h-420v-127h420v-238h155v238h420v127h-420v180h420v127h-373l523 762h-185l-460 -701l-457 701h-193z" />
    <glyph glyph-name="section" unicode="&#xa7;" horiz-adv-x="1294" 
d="M127 735q0 -53 22.5 -95t73.5 -77t132 -64.5t198 -56.5q96 -23 160.5 -44t102.5 -44.5t54.5 -48t16.5 -53.5q0 -59 -51.5 -98t-159.5 -39q-113 0 -206 44t-165 113l-102 -98q86 -88 205.5 -141t263.5 -53q174 0 275.5 74.5t101.5 199.5q0 68 -41 121t-111 88
q123 20 196.5 80.5t73.5 154.5q0 53 -22.5 95.5t-73.5 77t-132 63.5t-198 57q-96 23 -160.5 44.5t-102.5 45t-54 48t-16 53.5q0 59 51 98t159 39q113 0 206.5 -44t164.5 -114l103 99q-86 88 -206 141t-263 53q-174 0 -275.5 -74.5t-101.5 -199.5q0 -68 41 -121t110 -88
q-123 -20 -196.5 -81t-73.5 -155zM279 752q0 59 60 101t163 42q41 0 93 -7t130 -26q84 -20 140.5 -41.5t90 -43t47 -45t13.5 -50.5q0 -59 -60.5 -101t-162.5 -42q-41 0 -94.5 7t-129.5 25q-84 20 -140 42t-90 43.5t-47 45t-13 50.5z" />
    <glyph glyph-name="dieresis" unicode="&#xa8;" horiz-adv-x="1024" 
d="M240 1219h184v194h-184v-194zM600 1219h184v194h-184v-194z" />
    <glyph glyph-name="copyright" unicode="&#xa9;" horiz-adv-x="1699" 
d="M109 715q0 -152 57 -287t156.5 -235.5t234.5 -159t291 -58.5t292 59.5t236.5 161t157.5 236.5t57 287t-57 287t-156.5 235t-234.5 158.5t-291 58.5t-292 -59.5t-236.5 -160.5t-157.5 -236.5t-57 -286.5zM176 715q0 139 51.5 263t142.5 216t214 146.5t268 54.5
q143 0 266 -53.5t213 -145.5t141.5 -215t51.5 -262t-51.5 -263t-142.5 -216.5t-215 -146.5t-267 -54t-266 53t-213 145.5t-141.5 215t-51.5 262.5zM477 727q0 -82 29 -153.5t80 -125t120.5 -84t151.5 -30.5q104 0 174 37t129 98l-74 72q-51 -47 -102 -75t-123 -28
q-57 0 -106 22.5t-86 62.5t-57.5 93.5t-20.5 112.5t19.5 111.5t55 92.5t85 62.5t108.5 22.5q68 0 122 -30t99 -73l76 82q-57 53 -123.5 88t-171.5 35q-84 0 -154.5 -30.5t-121.5 -85t-80 -126t-29 -151.5z" />
    <glyph glyph-name="ordfeminine" unicode="&#xaa;" horiz-adv-x="798" 
d="M119 592h532v96h-532v-96zM125 1022q0 -47 19.5 -82t50 -58.5t69.5 -34.5t80 -11q66 0 114 24.5t83 65.5v-78h100v354q0 117 -64.5 177.5t-185.5 60.5q-66 0 -115 -14.5t-102 -36.5l31 -86q45 20 87 32.5t89 12.5q76 0 118 -37t42 -109v-10q-35 10 -73 16t-91 6
q-113 0 -182.5 -49t-69.5 -143zM231 1026q0 49 40 80t114 31q49 0 87 -6.5t69 -16.5v-49q0 -66 -53.5 -104.5t-125.5 -38.5q-53 0 -92 26.5t-39 77.5z" />
    <glyph glyph-name="guillemotleft" unicode="&#xab;" horiz-adv-x="1126" 
d="M98 522l332 -438l121 70l-277 378l277 375l-121 68l-332 -436v-17zM555 522l332 -438l119 70l-277 378l277 375l-119 68l-332 -436v-17z" />
    <glyph glyph-name="uni00AD" unicode="&#xad;" horiz-adv-x="835" 
d="M133 532h569v166h-569v-166z" />
    <glyph glyph-name="registered" unicode="&#xae;" horiz-adv-x="1699" 
d="M109 715q0 -152 57 -287t156.5 -235.5t234.5 -159t291 -58.5t292 59.5t236.5 161t157.5 236.5t57 287t-57 287t-156.5 235t-234.5 158.5t-291 58.5t-292 -59.5t-236.5 -160.5t-157.5 -236.5t-57 -286.5zM176 715q0 139 51.5 263t142.5 216t214 146.5t268 54.5
q143 0 266 -53.5t213 -145.5t141.5 -215t51.5 -262t-51.5 -263t-142.5 -216.5t-215 -146.5t-267 -54t-266 53t-213 145.5t-141.5 215t-51.5 262.5zM559 358h113v287h194l219 -287h140l-236 306q86 20 141.5 75.5t55.5 149.5q0 106 -80 167.5t-207 61.5h-340v-760zM672 745
v271h223q82 0 128 -35t46 -98q0 -66 -50 -102t-130 -36h-217z" />
    <glyph glyph-name="macron" unicode="&#xaf;" horiz-adv-x="1024" 
d="M188 1229h648v137h-648v-137z" />
    <glyph glyph-name="degree" unicode="&#xb0;" horiz-adv-x="937" 
d="M147 1133q0 -63 27 -120t71 -100t102.5 -68.5t121.5 -25.5t120.5 25.5t102.5 68.5t72 100t27 120t-27 119.5t-72 99.5t-102.5 68.5t-120.5 25.5t-121.5 -25.5t-102.5 -68.5t-71 -99.5t-27 -119.5zM266 1133q0 41 15.5 77.5t42 65.5t64.5 46t81 17t81 -17t64.5 -46
t42 -65.5t15.5 -77.5t-15.5 -78t-42 -65.5t-64.5 -46t-81 -17.5t-81 17.5t-64.5 46t-42 65.5t-15.5 78z" />
    <glyph glyph-name="plusminus" unicode="&#xb1;" horiz-adv-x="1236" 
d="M88 233q90 -113 227.5 -185.5t311.5 -72.5q111 0 201 32t154.5 88.5t100 132t35.5 163.5q0 70 -22.5 124t-60.5 97t-91 73t-115 50q47 18 92.5 47t80 70t56 95t21.5 126q0 84 -34.5 154.5t-96 122t-147.5 80t-189 28.5q-170 0 -288.5 -72.5t-204.5 -193.5l119 -86
q74 98 161.5 151.5t208.5 53.5q141 0 224 -71t83 -181q0 -61 -25.5 -111.5t-70.5 -84.5t-107.5 -52t-136.5 -18h-151v-140h147q182 0 282.5 -69.5t100.5 -192.5q0 -61 -24.5 -110.5t-67.5 -85t-102.5 -54t-128.5 -18.5q-137 0 -241.5 57.5t-182.5 155.5z" />
    <glyph glyph-name="acute" unicode="&#xb4;" horiz-adv-x="1024" 
d="M371 1219h127l231 221l-164 76z" />
    <glyph glyph-name="mu" unicode="&#xb5;" horiz-adv-x="1740" 
d="M139 715q0 -150 52.5 -284t148.5 -235.5t230.5 -161t297.5 -59.5q170 0 314 70l270 -252h238v12l-353 338q125 104 195 254t70 322q0 150 -52.5 284t-148.5 235t-230.5 160.5t-298.5 59.5t-299 -60.5t-231 -162.5t-149.5 -236.5t-53.5 -283.5zM307 719q0 123 42 230.5
t116 187.5t177 126t226 46t226.5 -47.5t179.5 -127t118 -188t42 -231.5t-42 -230.5t-116 -187.5t-177.5 -126t-226.5 -46t-226 47t-179 127t-118 188.5t-42 231.5z" />
    <glyph glyph-name="paragraph" unicode="&#xb6;" horiz-adv-x="1044" 
d="M98 987q0 -109 44 -191.5t121 -140t181.5 -86t225.5 -28.5h22v-541h164v1434h-217q-121 0 -220.5 -31t-170 -88.5t-110.5 -140t-40 -187.5z" />
    <glyph glyph-name="periodcentered" unicode="&#xb7;" horiz-adv-x="501" 
d="M158 508h188v215h-188v-215z" />
    <glyph glyph-name="cedilla" unicode="&#xb8;" horiz-adv-x="1024" 
d="M307 -248l154 -69l155 337h-124z" />
    <glyph glyph-name="ordmasculine" unicode="&#xba;" horiz-adv-x="798" 
d="M98 1137q0 -61 22.5 -116.5t62.5 -97.5t94.5 -65.5t119.5 -23.5q66 0 121 24.5t96 66.5t63.5 97.5t22.5 118.5q0 61 -22.5 116.5t-62.5 97.5t-95 65.5t-119 23.5q-66 0 -121 -24.5t-96 -66.5t-63.5 -97.5t-22.5 -118.5zM104 592h590v96h-590v-96zM209 1141q0 86 51 145.5
t137 59.5q84 0 138.5 -60.5t54.5 -148.5q0 -86 -51.5 -145.5t-137.5 -59.5q-41 0 -76.5 16.5t-61 45t-40 66.5t-14.5 81z" />
    <glyph glyph-name="guillemotright" unicode="&#xbb;" horiz-adv-x="1126" 
d="M121 152l119 -68l331 438v17l-331 436l-119 -70l276 -377zM575 152l121 -68l332 438v17l-332 436l-121 -70l277 -377z" />
    <glyph glyph-name="questiondown" unicode="&#xbf;" horiz-adv-x="1099" 
d="M98 389q0 -88 33 -162.5t92.5 -129t144.5 -85t189 -30.5q164 0 277.5 65.5t201.5 171.5l-104 100q-78 -92 -168 -142t-203 -50q-70 0 -125 20.5t-94 57.5t-59.5 86t-20.5 104q0 131 103.5 209t304.5 82l10 10l-33 332h-104l-19 -221q-88 -12 -164.5 -43t-135 -82
t-92.5 -124t-34 -169zM504 1219h188v215h-188v-215z" />
    <glyph glyph-name="Agrave" unicode="&#xc0;" 
d="M80 0h166l170 379h780l168 -379h174l-653 1444h-152zM479 524l328 731l326 -731h-654zM512 1782l231 -221h127l-194 297z" />
    <glyph glyph-name="Aacute" unicode="&#xc1;" 
d="M80 0h166l170 379h780l168 -379h174l-653 1444h-152zM479 524l328 731l326 -731h-654zM748 1561h127l231 221l-164 76z" />
    <glyph glyph-name="Acircumflex" unicode="&#xc2;" 
d="M80 0h166l170 379h780l168 -379h174l-653 1444h-152zM479 524l328 731l326 -731h-654zM522 1555h131l154 137l154 -137h135l-217 268h-140z" />
    <glyph glyph-name="Atilde" unicode="&#xc3;" 
d="M80 0h166l170 379h780l168 -379h174l-653 1444h-152zM473 1569l96 -27q23 55 44.5 77.5t62.5 22.5q27 0 59.5 -13t69.5 -28.5t73.5 -27.5t71.5 -12q74 0 119 49t76 166l-96 26q-23 -55 -44.5 -77.5t-62.5 -22.5q-27 0 -59.5 12t-69.5 27.5t-73.5 29t-71.5 13.5
q-74 0 -119 -49.5t-76 -165.5zM479 524l328 731l326 -731h-654z" />
    <glyph glyph-name="Adieresis" unicode="&#xc4;" 
d="M80 0h166l170 379h780l168 -379h174l-653 1444h-152zM479 524l328 731l326 -731h-654zM537 1561h184v194h-184v-194zM897 1561h184v194h-184v-194z" />
    <glyph glyph-name="Aring" unicode="&#xc5;" 
d="M80 0h166l170 379h780l168 -379h174l-629 1393q49 27 81 72.5t32 105.5q0 43 -17.5 80t-47 64.5t-67.5 44t-81 16.5t-81 -16.5t-67.5 -44t-47 -64.5t-17.5 -80q0 -59 32 -105t81 -73zM479 524l328 731l326 -731h-654zM682 1571q0 53 37 90t90 37t90 -37t37 -90t-37 -90
t-90 -37t-90 37t-37 90z" />
    <glyph glyph-name="AE" unicode="&#xc6;" horiz-adv-x="2140" 
d="M35 0h170l223 379h578v-379h1011v147h-848v502h746v148h-746v489h838v148h-1130zM510 524l446 766h50v-766h-496z" />
    <glyph glyph-name="Ccedilla" unicode="&#xc7;" horiz-adv-x="1511" 
d="M139 715q0 -143 46 -269.5t128 -223.5t197 -159.5t250 -80.5l-158 -230l154 -69l135 292q90 4 166 23.5t141.5 52.5t122.5 77t111 99l-107 105q-102 -98 -208.5 -152.5t-254.5 -54.5q-119 0 -220 46t-176 126t-117 188.5t-42 233.5t42 232.5t117 187.5t176 125t220 45
q147 0 253 -55.5t198 -141.5l110 119q-53 51 -110.5 93t-125 71.5t-146 46t-177.5 16.5q-158 0 -291 -58.5t-229 -159.5t-150.5 -236.5t-54.5 -288.5z" />
    <glyph glyph-name="Egrave" unicode="&#xc8;" horiz-adv-x="1372" 
d="M203 0h1046v147h-884v502h782v148h-782v489h874v148h-1036v-1434zM465 1782l231 -221h127l-194 297z" />
    <glyph glyph-name="Eacute" unicode="&#xc9;" horiz-adv-x="1372" 
d="M203 0h1046v147h-884v502h782v148h-782v489h874v148h-1036v-1434zM609 1561h127l231 221l-164 76z" />
    <glyph glyph-name="Ecircumflex" unicode="&#xca;" horiz-adv-x="1372" 
d="M203 0h1046v147h-884v502h782v148h-782v489h874v148h-1036v-1434zM426 1561h131l154 137l154 -137h135l-217 268h-140z" />
    <glyph glyph-name="Edieresis" unicode="&#xcb;" horiz-adv-x="1372" 
d="M203 0h1046v147h-884v502h782v148h-782v489h874v148h-1036v-1434zM441 1561h184v194h-184v-194zM801 1561h184v194h-184v-194z" />
    <glyph glyph-name="Igrave" unicode="&#xcc;" horiz-adv-x="595" 
d="M217 0h162v1434h-162v-1434zM219 1782l231 -221h127l-194 297z" />
    <glyph glyph-name="Iacute" unicode="&#xcd;" horiz-adv-x="595" 
d="M217 0h162v1434h-162v-1434zM236 1561h127l231 221l-164 76z" />
    <glyph glyph-name="Icircumflex" unicode="&#xce;" horiz-adv-x="595" 
d="M217 0h162v1434h-162v-1434zM219 1561h131l154 137l154 -137h135l-217 268h-140z" />
    <glyph glyph-name="Idieresis" unicode="&#xcf;" horiz-adv-x="595" 
d="M217 0h162v1434h-162v-1434zM220 1561h184v194h-184v-194zM580 1561h184v194h-184v-194z" />
    <glyph glyph-name="Eth" unicode="&#xd0;" horiz-adv-x="1662" 
d="M111 647h153v-647h498q168 0 308 55.5t241.5 151.5t157 228t55.5 284t-55.5 283t-157 227t-241.5 150.5t-308 54.5h-498v-639h-153v-148zM426 150v497h430v148h-430v489h336q135 0 245.5 -44t187.5 -121t119 -181t42 -223q0 -121 -42 -223.5t-119 -179t-187.5 -119.5
t-245.5 -43h-336z" />
    <glyph glyph-name="Ntilde" unicode="&#xd1;" 
d="M203 0h157v1176l926 -1176h129v1434h-158v-1149l-903 1149h-151v-1434zM473 1569l96 -27q23 55 44.5 77.5t62.5 22.5q27 0 59.5 -13t69.5 -28.5t73.5 -27.5t71.5 -12q74 0 119 49t76 166l-96 26q-23 -55 -44.5 -77.5t-62.5 -22.5q-27 0 -59.5 12t-69.5 27.5t-73.5 29
t-71.5 13.5q-74 0 -119 -49.5t-76 -165.5z" />
    <glyph glyph-name="Ograve" unicode="&#xd2;" horiz-adv-x="1740" 
d="M139 715q0 -150 52.5 -284t148.5 -235.5t230.5 -161t297.5 -59.5q164 0 299.5 60.5t231.5 163t149.5 236.5t53.5 284t-52.5 284t-148.5 235t-230.5 160.5t-298.5 59.5t-299 -60.5t-231 -162.5t-149.5 -236.5t-53.5 -283.5zM307 719q0 123 42 230.5t116 187.5t177 126
t226 46t226.5 -47.5t179.5 -127t118 -188t42 -231.5t-42 -230.5t-116 -187.5t-177.5 -126t-226.5 -46t-226 47t-179 127t-118 188.5t-42 231.5zM565 1782l231 -221h127l-194 297z" />
    <glyph glyph-name="Oacute" unicode="&#xd3;" horiz-adv-x="1740" 
d="M139 715q0 -150 52.5 -284t148.5 -235.5t230.5 -161t297.5 -59.5q164 0 299.5 60.5t231.5 163t149.5 236.5t53.5 284t-52.5 284t-148.5 235t-230.5 160.5t-298.5 59.5t-299 -60.5t-231 -162.5t-149.5 -236.5t-53.5 -283.5zM307 719q0 123 42 230.5t116 187.5t177 126
t226 46t226.5 -47.5t179.5 -127t118 -188t42 -231.5t-42 -230.5t-116 -187.5t-177.5 -126t-226.5 -46t-226 47t-179 127t-118 188.5t-42 231.5zM817 1561h127l231 221l-164 76z" />
    <glyph glyph-name="Ocircumflex" unicode="&#xd4;" horiz-adv-x="1740" 
d="M139 715q0 -150 52.5 -284t148.5 -235.5t230.5 -161t297.5 -59.5q164 0 299.5 60.5t231.5 163t149.5 236.5t53.5 284t-52.5 284t-148.5 235t-230.5 160.5t-298.5 59.5t-299 -60.5t-231 -162.5t-149.5 -236.5t-53.5 -283.5zM307 719q0 123 42 230.5t116 187.5t177 126
t226 46t226.5 -47.5t179.5 -127t118 -188t42 -231.5t-42 -230.5t-116 -187.5t-177.5 -126t-226.5 -46t-226 47t-179 127t-118 188.5t-42 231.5zM583 1561h131l154 137l154 -137h135l-217 268h-140z" />
    <glyph glyph-name="Otilde" unicode="&#xd5;" horiz-adv-x="1740" 
d="M139 715q0 -150 52.5 -284t148.5 -235.5t230.5 -161t297.5 -59.5q164 0 299.5 60.5t231.5 163t149.5 236.5t53.5 284t-52.5 284t-148.5 235t-230.5 160.5t-298.5 59.5t-299 -60.5t-231 -162.5t-149.5 -236.5t-53.5 -283.5zM307 719q0 123 42 230.5t116 187.5t177 126
t226 46t226.5 -47.5t179.5 -127t118 -188t42 -231.5t-42 -230.5t-116 -187.5t-177.5 -126t-226.5 -46t-226 47t-179 127t-118 188.5t-42 231.5zM534 1569l96 -27q23 55 44.5 77.5t62.5 22.5q27 0 59.5 -13t69.5 -28.5t73.5 -27.5t71.5 -12q74 0 119 49t76 166l-96 26
q-23 -55 -44.5 -77.5t-62.5 -22.5q-27 0 -59.5 12t-69.5 27.5t-73.5 29t-71.5 13.5q-74 0 -119 -49.5t-76 -165.5z" />
    <glyph glyph-name="Odieresis" unicode="&#xd6;" horiz-adv-x="1740" 
d="M139 715q0 -150 52.5 -284t148.5 -235.5t230.5 -161t297.5 -59.5q164 0 299.5 60.5t231.5 163t149.5 236.5t53.5 284t-52.5 284t-148.5 235t-230.5 160.5t-298.5 59.5t-299 -60.5t-231 -162.5t-149.5 -236.5t-53.5 -283.5zM307 719q0 123 42 230.5t116 187.5t177 126
t226 46t226.5 -47.5t179.5 -127t118 -188t42 -231.5t-42 -230.5t-116 -187.5t-177.5 -126t-226.5 -46t-226 47t-179 127t-118 188.5t-42 231.5zM598 1561h184v194h-184v-194zM958 1561h184v194h-184v-194z" />
    <glyph glyph-name="Oslash" unicode="&#xd8;" horiz-adv-x="1740" 
d="M123 -10h170l127 137q90 -72 202.5 -112t245.5 -40q164 0 299.5 60.5t231.5 163t149.5 236.5t53.5 284q0 143 -48.5 273t-138.5 229l203 223h-170l-127 -137q-90 72 -202.5 111.5t-246.5 39.5q-164 0 -299 -60.5t-231 -162.5t-149.5 -236.5t-53.5 -283.5
q0 -143 48.5 -273.5t138.5 -230.5zM305 719q0 123 42 231.5t117 188.5t178 127t226 47q104 0 191.5 -34t159.5 -91l-785 -854q-61 78 -95 176t-34 209zM522 246l785 854q61 -78 95 -176t34 -209q0 -123 -42 -231.5t-117 -188.5t-178.5 -127t-226.5 -47q-104 0 -191 33.5
t-159 91.5z" />
    <glyph glyph-name="Ugrave" unicode="&#xd9;" horiz-adv-x="1554" 
d="M180 600q0 -152 43 -268.5t122 -195.5t188.5 -119t242.5 -40q135 0 244.5 40t188.5 120t122 199t43 276v822h-162v-834q0 -236 -116.5 -354.5t-315.5 -118.5q-207 0 -322.5 125t-115.5 358v824h-162v-834zM494 1772l231 -221h127l-194 297z" />
    <glyph glyph-name="Uacute" unicode="&#xda;" horiz-adv-x="1554" 
d="M180 600q0 -152 43 -268.5t122 -195.5t188.5 -119t242.5 -40q135 0 244.5 40t188.5 120t122 199t43 276v822h-162v-834q0 -236 -116.5 -354.5t-315.5 -118.5q-207 0 -322.5 125t-115.5 358v824h-162v-834zM703 1551h127l231 221l-164 76z" />
    <glyph glyph-name="Ucircumflex" unicode="&#xdb;" horiz-adv-x="1554" 
d="M180 600q0 -152 43 -268.5t122 -195.5t188.5 -119t242.5 -40q135 0 244.5 40t188.5 120t122 199t43 276v822h-162v-834q0 -236 -116.5 -354.5t-315.5 -118.5q-207 0 -322.5 125t-115.5 358v824h-162v-834zM489 1555h131l154 137l154 -137h135l-217 268h-140z" />
    <glyph glyph-name="Udieresis" unicode="&#xdc;" horiz-adv-x="1554" 
d="M180 600q0 -152 43 -268.5t122 -195.5t188.5 -119t242.5 -40q135 0 244.5 40t188.5 120t122 199t43 276v822h-162v-834q0 -236 -116.5 -354.5t-315.5 -118.5q-207 0 -322.5 125t-115.5 358v824h-162v-834zM504 1555h184v194h-184v-194zM864 1555h184v194h-184v-194z" />
    <glyph glyph-name="Yacute" unicode="&#xdd;" horiz-adv-x="1466" 
d="M55 1434l596 -867v-567h164v569l596 865h-188l-488 -717l-483 717h-197zM674 1551h127l231 221l-164 76z" />
    <glyph glyph-name="Thorn" unicode="&#xde;" horiz-adv-x="1378" 
d="M203 0h162v258h348q115 0 217 29.5t179 90t122 148.5t45 205q0 106 -38 191.5t-108.5 143.5t-170 90t-220.5 32h-374v246h-162v-1434zM365 406v632h362q174 0 279.5 -78.5t105.5 -234.5q0 -72 -27.5 -130t-80 -100t-125 -65.5t-160.5 -23.5h-354z" />
    <glyph glyph-name="germandbls" unicode="&#xdf;" horiz-adv-x="1269" 
d="M176 0h158v1028q0 158 84 250t215 92q121 0 194.5 -66.5t73.5 -175.5q0 -63 -23.5 -114t-63.5 -92t-96 -72t-120 -55v-117q180 -18 285.5 -88t105.5 -195q0 -131 -104.5 -199.5t-286.5 -72.5v-127q127 -2 229.5 24.5t174 78t110.5 126t39 170.5q0 80 -30.5 141.5
t-83 106.5t-119 73.5t-140.5 45.5q53 23 104.5 57.5t91.5 80.5t64.5 105.5t24.5 133.5q0 78 -29.5 145.5t-85 117.5t-133.5 78.5t-174 28.5q-106 0 -192.5 -34.5t-146.5 -98t-93 -152.5t-33 -198v-1026z" />
    <glyph glyph-name="agrave" unicode="&#xe0;" horiz-adv-x="1185" 
d="M96 309q0 -84 34 -145.5t90 -103.5t127 -62.5t145 -20.5q141 0 234 55.5t148 127.5v-160h152v647q0 211 -116.5 318.5t-334.5 107.5q-117 0 -206.5 -23.5t-178.5 -64.5l48 -129q74 35 150.5 56.5t170.5 21.5q150 0 232.5 -73t82.5 -216v-37q-72 20 -147.5 32.5
t-177.5 12.5q-100 0 -183 -22.5t-143.5 -65.5t-93.5 -107.5t-33 -148.5zM256 315q0 102 79.5 162t229.5 60q98 0 175 -14.5t137 -30.5v-103q0 -63 -28 -115.5t-76 -90.5t-112.5 -59.5t-138.5 -21.5q-53 0 -101 14.5t-85 42t-58.5 66.5t-21.5 90zM303 1440l231 -221h127
l-194 297z" />
    <glyph glyph-name="aacute" unicode="&#xe1;" horiz-adv-x="1185" 
d="M96 309q0 -84 34 -145.5t90 -103.5t127 -62.5t145 -20.5q141 0 234 55.5t148 127.5v-160h152v647q0 211 -116.5 318.5t-334.5 107.5q-117 0 -206.5 -23.5t-178.5 -64.5l48 -129q74 35 150.5 56.5t170.5 21.5q150 0 232.5 -73t82.5 -216v-37q-72 20 -147.5 32.5
t-177.5 12.5q-100 0 -183 -22.5t-143.5 -65.5t-93.5 -107.5t-33 -148.5zM256 315q0 102 79.5 162t229.5 60q98 0 175 -14.5t137 -30.5v-103q0 -63 -28 -115.5t-76 -90.5t-112.5 -59.5t-138.5 -21.5q-53 0 -101 14.5t-85 42t-58.5 66.5t-21.5 90zM508 1219h127l231 221
l-164 76z" />
    <glyph glyph-name="acircumflex" unicode="&#xe2;" horiz-adv-x="1185" 
d="M96 309q0 -84 34 -145.5t90 -103.5t127 -62.5t145 -20.5q141 0 234 55.5t148 127.5v-160h152v647q0 211 -116.5 318.5t-334.5 107.5q-117 0 -206.5 -23.5t-178.5 -64.5l48 -129q74 35 150.5 56.5t170.5 21.5q150 0 232.5 -73t82.5 -216v-37q-72 20 -147.5 32.5
t-177.5 12.5q-100 0 -183 -22.5t-143.5 -65.5t-93.5 -107.5t-33 -148.5zM256 315q0 102 79.5 162t229.5 60q98 0 175 -14.5t137 -30.5v-103q0 -63 -28 -115.5t-76 -90.5t-112.5 -59.5t-138.5 -21.5q-53 0 -101 14.5t-85 42t-58.5 66.5t-21.5 90zM309 1219h131l154 137
l154 -137h135l-217 268h-140z" />
    <glyph glyph-name="atilde" unicode="&#xe3;" horiz-adv-x="1185" 
d="M96 309q0 -84 34 -145.5t90 -103.5t127 -62.5t145 -20.5q141 0 234 55.5t148 127.5v-160h152v647q0 211 -116.5 318.5t-334.5 107.5q-117 0 -206.5 -23.5t-178.5 -64.5l48 -129q74 35 150.5 56.5t170.5 21.5q150 0 232.5 -73t82.5 -216v-37q-72 20 -147.5 32.5
t-177.5 12.5q-100 0 -183 -22.5t-143.5 -65.5t-93.5 -107.5t-33 -148.5zM256 315q0 102 79.5 162t229.5 60q98 0 175 -14.5t137 -30.5v-103q0 -63 -28 -115.5t-76 -90.5t-112.5 -59.5t-138.5 -21.5q-53 0 -101 14.5t-85 42t-58.5 66.5t-21.5 90zM262 1227l96 -27
q23 55 44.5 77.5t62.5 22.5q27 0 59.5 -13t69.5 -28.5t73.5 -27.5t71.5 -12q74 0 119 49t76 166l-96 26q-23 -55 -44.5 -77.5t-62.5 -22.5q-27 0 -59.5 12t-69.5 27.5t-73.5 29t-71.5 13.5q-74 0 -119 -49.5t-76 -165.5z" />
    <glyph glyph-name="adieresis" unicode="&#xe4;" horiz-adv-x="1185" 
d="M96 309q0 -84 34 -145.5t90 -103.5t127 -62.5t145 -20.5q141 0 234 55.5t148 127.5v-160h152v647q0 211 -116.5 318.5t-334.5 107.5q-117 0 -206.5 -23.5t-178.5 -64.5l48 -129q74 35 150.5 56.5t170.5 21.5q150 0 232.5 -73t82.5 -216v-37q-72 20 -147.5 32.5
t-177.5 12.5q-100 0 -183 -22.5t-143.5 -65.5t-93.5 -107.5t-33 -148.5zM256 315q0 102 79.5 162t229.5 60q98 0 175 -14.5t137 -30.5v-103q0 -63 -28 -115.5t-76 -90.5t-112.5 -59.5t-138.5 -21.5q-53 0 -101 14.5t-85 42t-58.5 66.5t-21.5 90zM324 1219h184v194h-184v-194
zM684 1219h184v194h-184v-194z" />
    <glyph glyph-name="aring" unicode="&#xe5;" horiz-adv-x="1185" 
d="M96 309q0 -84 34 -145.5t90 -103.5t127 -62.5t145 -20.5q141 0 234 55.5t148 127.5v-160h152v647q0 211 -116.5 318.5t-334.5 107.5q-117 0 -206.5 -23.5t-178.5 -64.5l48 -129q74 35 150.5 56.5t170.5 21.5q150 0 232.5 -73t82.5 -216v-37q-72 20 -147.5 32.5
t-177.5 12.5q-100 0 -183 -22.5t-143.5 -65.5t-93.5 -107.5t-33 -148.5zM256 315q0 102 79.5 162t229.5 60q98 0 175 -14.5t137 -30.5v-103q0 -63 -28 -115.5t-76 -90.5t-112.5 -59.5t-138.5 -21.5q-53 0 -101 14.5t-85 42t-58.5 66.5t-21.5 90zM383 1419q0 -43 17.5 -79.5
t47 -64.5t67.5 -44.5t81 -16.5t81 16.5t67.5 44.5t47 64.5t17.5 79.5t-17.5 80t-47 64.5t-67.5 44t-81 16.5t-81 -16.5t-67.5 -44t-47 -64.5t-17.5 -80zM469 1419q0 53 37 90t90 37t90 -37t37 -90t-37 -90t-90 -37t-90 37t-37 90z" />
    <glyph glyph-name="ae" unicode="&#xe6;" horiz-adv-x="1951" 
d="M96 309q0 -82 34 -144.5t89 -103.5t127 -62.5t150 -21.5q147 0 261.5 61.5t200.5 149.5q72 -100 181.5 -156.5t238.5 -56.5q152 0 255.5 54.5t181.5 144.5l-99 88q-66 -68 -144.5 -108.5t-189.5 -40.5q-70 0 -133 23.5t-113.5 69.5t-83 112.5t-40.5 152.5h837
q2 14 3 26.5t1 22.5q0 117 -33.5 219.5t-96 178t-154.5 119.5t-209 44q-131 0 -236.5 -64.5t-169.5 -170.5q-41 115 -139 171t-250 56q-115 0 -200.5 -23.5t-174.5 -64.5l48 -129q74 35 146.5 56.5t164.5 21.5q147 0 226 -73t79 -216v-37q-72 20 -143.5 32.5t-169.5 12.5
t-179 -22.5t-140.5 -65.5t-92.5 -107.5t-33 -148.5zM256 317q0 102 78 161t223 59q88 0 162 -13.5t133 -29.5q6 -109 43 -201q-74 -84 -169 -136.5t-212 -52.5q-53 0 -100 14.5t-82 42t-55.5 66.5t-20.5 90zM1010 588q8 78 36.5 143.5t73.5 113.5t105.5 75.5t130.5 27.5
q78 0 138 -29.5t102 -78.5t66 -115t30 -137h-682z" />
    <glyph glyph-name="ccedilla" unicode="&#xe7;" horiz-adv-x="1169" 
d="M111 526q0 -100 32.5 -191t92 -163t141.5 -121t178 -65l-160 -234l154 -69l135 292q137 8 230.5 63.5t170.5 141.5l-100 94q-63 -68 -142 -112.5t-181 -44.5q-84 0 -155 31.5t-123 88t-82 132t-30 161.5t29 161t80 131.5t120.5 88t149.5 31.5q109 0 183.5 -47t138.5 -113
l104 111q-37 39 -80 73.5t-94 60.5t-112.5 40t-137.5 14q-117 0 -216 -44t-171.5 -119.5t-113.5 -177t-41 -214.5z" />
    <glyph glyph-name="egrave" unicode="&#xe8;" horiz-adv-x="1212" 
d="M111 528q0 -123 42 -225t113.5 -175t167.5 -113t205 -40q152 0 254 54.5t182 144.5l-98 88q-66 -68 -144.5 -108.5t-189.5 -40.5q-70 0 -133.5 23.5t-114.5 69.5t-84 112.5t-41 152.5h840q2 14 2 27v22q0 117 -32.5 219.5t-96 178t-156 119.5t-209.5 44
q-111 0 -203.5 -43t-160.5 -117.5t-105.5 -176t-37.5 -216.5zM270 588q8 78 37 143.5t74 113.5t104.5 75.5t128.5 27.5q80 0 140.5 -29.5t102.5 -78.5t65.5 -115t29.5 -137h-682zM334 1440l231 -221h127l-194 297z" />
    <glyph glyph-name="eacute" unicode="&#xe9;" horiz-adv-x="1212" 
d="M111 528q0 -123 42 -225t113.5 -175t167.5 -113t205 -40q152 0 254 54.5t182 144.5l-98 88q-66 -68 -144.5 -108.5t-189.5 -40.5q-70 0 -133.5 23.5t-114.5 69.5t-84 112.5t-41 152.5h840q2 14 2 27v22q0 117 -32.5 219.5t-96 178t-156 119.5t-209.5 44
q-111 0 -203.5 -43t-160.5 -117.5t-105.5 -176t-37.5 -216.5zM270 588q8 78 37 143.5t74 113.5t104.5 75.5t128.5 27.5q80 0 140.5 -29.5t102.5 -78.5t65.5 -115t29.5 -137h-682zM521 1219h127l231 221l-164 76z" />
    <glyph glyph-name="ecircumflex" unicode="&#xea;" horiz-adv-x="1212" 
d="M111 528q0 -123 42 -225t113.5 -175t167.5 -113t205 -40q152 0 254 54.5t182 144.5l-98 88q-66 -68 -144.5 -108.5t-189.5 -40.5q-70 0 -133.5 23.5t-114.5 69.5t-84 112.5t-41 152.5h840q2 14 2 27v22q0 117 -32.5 219.5t-96 178t-156 119.5t-209.5 44
q-111 0 -203.5 -43t-160.5 -117.5t-105.5 -176t-37.5 -216.5zM270 588q8 78 37 143.5t74 113.5t104.5 75.5t128.5 27.5q80 0 140.5 -29.5t102.5 -78.5t65.5 -115t29.5 -137h-682zM325 1219h131l154 137l154 -137h135l-217 268h-140z" />
    <glyph glyph-name="edieresis" unicode="&#xeb;" horiz-adv-x="1212" 
d="M111 528q0 -123 42 -225t113.5 -175t167.5 -113t205 -40q152 0 254 54.5t182 144.5l-98 88q-66 -68 -144.5 -108.5t-189.5 -40.5q-70 0 -133.5 23.5t-114.5 69.5t-84 112.5t-41 152.5h840q2 14 2 27v22q0 117 -32.5 219.5t-96 178t-156 119.5t-209.5 44
q-111 0 -203.5 -43t-160.5 -117.5t-105.5 -176t-37.5 -216.5zM270 588q8 78 37 143.5t74 113.5t104.5 75.5t128.5 27.5q80 0 140.5 -29.5t102.5 -78.5t65.5 -115t29.5 -137h-682zM340 1219h184v194h-184v-194zM700 1219h184v194h-184v-194z" />
    <glyph glyph-name="igrave" unicode="&#xec;" horiz-adv-x="538" 
d="M190 0h158v1059h-158v-1059zM193 1440l231 -221h127l-194 297z" />
    <glyph glyph-name="iacute" unicode="&#xed;" horiz-adv-x="538" 
d="M190 0h158v1059h-158v-1059zM207 1219h127l231 221l-164 76z" />
    <glyph glyph-name="icircumflex" unicode="&#xee;" horiz-adv-x="538" 
d="M190 0h158v1059h-158v-1059zM192 1219h131l154 137l154 -137h135l-217 268h-140z" />
    <glyph glyph-name="idieresis" unicode="&#xef;" horiz-adv-x="538" 
d="M190 0h158v1059h-158v-1059zM193 1219h184v194h-184v-194zM553 1219h184v194h-184v-194z" />
    <glyph glyph-name="eth" unicode="&#xf0;" horiz-adv-x="1296" 
d="M111 504q0 -109 39.5 -205t110.5 -168t167 -114t211 -42q125 0 226.5 44t172 118t108.5 172.5t38 206.5q0 72 -12.5 136.5t-36 124t-56 118.5t-75.5 121l-207 305l209 96l-72 96l-203 -98l-53 80h-189l103 -143l-268 -125l73 -97l262 130l269 -377q-68 47 -144.5 79.5
t-187.5 32.5q-98 0 -186 -35.5t-155 -100t-105.5 -155t-38.5 -200.5zM270 498q0 78 26 146.5t73 118.5t113.5 78.5t150.5 28.5t154.5 -29.5t123 -79.5t82 -117.5t29.5 -143.5q0 -78 -26.5 -147.5t-76 -123t-118 -84t-152.5 -30.5t-152.5 31.5t-119.5 85t-79 122t-28 144.5z
" />
    <glyph glyph-name="ntilde" unicode="&#xf1;" horiz-adv-x="1261" 
d="M176 0h158v606q0 74 23.5 135.5t66.5 105.5t101.5 67.5t125.5 23.5q141 0 217 -86t76 -234v-618h158v657q0 94 -27.5 172t-80 134.5t-127 87t-171.5 30.5q-137 0 -223 -60t-139 -147v185h-158v-1059zM303 1227l96 -27q23 55 44.5 77.5t62.5 22.5q27 0 59.5 -13
t69.5 -28.5t73.5 -27.5t71.5 -12q74 0 119 49t76 166l-96 26q-23 -55 -44.5 -77.5t-62.5 -22.5q-27 0 -59.5 12t-69.5 27.5t-73.5 29t-71.5 13.5q-74 0 -119 -49.5t-76 -165.5z" />
    <glyph glyph-name="ograve" unicode="&#xf2;" horiz-adv-x="1323" 
d="M111 526q0 -113 41 -213t114.5 -175t174 -119t218.5 -44q119 0 221.5 44t176 120t115.5 177t42 214t-40.5 213.5t-114.5 175t-175.5 118.5t-219.5 44q-121 0 -222.5 -44t-175 -119.5t-114.5 -177t-41 -214.5zM272 530q0 86 29 161t79 131.5t121.5 88t157.5 31.5
q84 0 156 -32.5t125 -89t83 -132.5t30 -162t-29 -160.5t-80 -130t-122.5 -87t-157.5 -31.5q-84 0 -156 32.5t-124 88t-82 131t-30 161.5zM367 1440l231 -221h127l-194 297z" />
    <glyph glyph-name="oacute" unicode="&#xf3;" horiz-adv-x="1323" 
d="M111 526q0 -113 41 -213t114.5 -175t174 -119t218.5 -44q119 0 221.5 44t176 120t115.5 177t42 214t-40.5 213.5t-114.5 175t-175.5 118.5t-219.5 44q-121 0 -222.5 -44t-175 -119.5t-114.5 -177t-41 -214.5zM272 530q0 86 29 161t79 131.5t121.5 88t157.5 31.5
q84 0 156 -32.5t125 -89t83 -132.5t30 -162t-29 -160.5t-80 -130t-122.5 -87t-157.5 -31.5q-84 0 -156 32.5t-124 88t-82 131t-30 161.5zM600 1219h127l231 221l-164 76z" />
    <glyph glyph-name="ocircumflex" unicode="&#xf4;" horiz-adv-x="1323" 
d="M111 526q0 -113 41 -213t114.5 -175t174 -119t218.5 -44q119 0 221.5 44t176 120t115.5 177t42 214t-40.5 213.5t-114.5 175t-175.5 118.5t-219.5 44q-121 0 -222.5 -44t-175 -119.5t-114.5 -177t-41 -214.5zM272 530q0 86 29 161t79 131.5t121.5 88t157.5 31.5
q84 0 156 -32.5t125 -89t83 -132.5t30 -162t-29 -160.5t-80 -130t-122.5 -87t-157.5 -31.5q-84 0 -156 32.5t-124 88t-82 131t-30 161.5zM375 1219h131l154 137l154 -137h135l-217 268h-140z" />
    <glyph glyph-name="otilde" unicode="&#xf5;" horiz-adv-x="1323" 
d="M111 526q0 -113 41 -213t114.5 -175t174 -119t218.5 -44q119 0 221.5 44t176 120t115.5 177t42 214t-40.5 213.5t-114.5 175t-175.5 118.5t-219.5 44q-121 0 -222.5 -44t-175 -119.5t-114.5 -177t-41 -214.5zM272 530q0 86 29 161t79 131.5t121.5 88t157.5 31.5
q84 0 156 -32.5t125 -89t83 -132.5t30 -162t-29 -160.5t-80 -130t-122.5 -87t-157.5 -31.5q-84 0 -156 32.5t-124 88t-82 131t-30 161.5zM326 1227l96 -27q23 55 44.5 77.5t62.5 22.5q27 0 59.5 -13t69.5 -28.5t73.5 -27.5t71.5 -12q74 0 119 49t76 166l-96 26
q-23 -55 -44.5 -77.5t-62.5 -22.5q-27 0 -59.5 12t-69.5 27.5t-73.5 29t-71.5 13.5q-74 0 -119 -49.5t-76 -165.5z" />
    <glyph glyph-name="odieresis" unicode="&#xf6;" horiz-adv-x="1323" 
d="M111 526q0 -113 41 -213t114.5 -175t174 -119t218.5 -44q119 0 221.5 44t176 120t115.5 177t42 214t-40.5 213.5t-114.5 175t-175.5 118.5t-219.5 44q-121 0 -222.5 -44t-175 -119.5t-114.5 -177t-41 -214.5zM272 530q0 86 29 161t79 131.5t121.5 88t157.5 31.5
q84 0 156 -32.5t125 -89t83 -132.5t30 -162t-29 -160.5t-80 -130t-122.5 -87t-157.5 -31.5q-84 0 -156 32.5t-124 88t-82 131t-30 161.5zM390 1219h184v194h-184v-194zM750 1219h184v194h-184v-194z" />
    <glyph glyph-name="oslash" unicode="&#xf8;" horiz-adv-x="1323" 
d="M80 -10h158l92 94q68 -51 150.5 -80t178.5 -29q119 0 221.5 44t176 120t115.5 177t42 214q0 106 -34.5 199.5t-98.5 165.5l164 176h-160l-92 -100q-66 53 -149.5 81.5t-179.5 28.5q-121 0 -222.5 -44t-175 -119.5t-114.5 -177t-41 -214.5q0 -104 34.5 -196t96.5 -166z
M268 530q0 86 29 162t81 132.5t123.5 88t157.5 31.5q140 0 238 -86l-549 -579q-80 109 -80 251zM426 197l549 583q80 -109 80 -254q0 -86 -29 -161.5t-80 -132t-123.5 -88t-158.5 -31.5q-135 0 -238 84z" />
    <glyph glyph-name="ugrave" unicode="&#xf9;" horiz-adv-x="1261" 
d="M160 401q0 -94 27.5 -171.5t79.5 -134t127 -87.5t171 -31q137 0 223 60.5t140 146.5v-184h155v1059h-155v-606q0 -74 -24.5 -135.5t-66.5 -105.5t-100.5 -67.5t-126.5 -23.5q-141 0 -217 86t-76 233v619h-157v-658zM350 1434l231 -221h127l-194 297z" />
    <glyph glyph-name="uacute" unicode="&#xfa;" horiz-adv-x="1261" 
d="M160 401q0 -94 27.5 -171.5t79.5 -134t127 -87.5t171 -31q137 0 223 60.5t140 146.5v-184h155v1059h-155v-606q0 -74 -24.5 -135.5t-66.5 -105.5t-100.5 -67.5t-126.5 -23.5q-141 0 -217 86t-76 233v619h-157v-658zM545 1213h127l231 221l-164 76z" />
    <glyph glyph-name="ucircumflex" unicode="&#xfb;" horiz-adv-x="1261" 
d="M160 401q0 -94 27.5 -171.5t79.5 -134t127 -87.5t171 -31q137 0 223 60.5t140 146.5v-184h155v1059h-155v-606q0 -74 -24.5 -135.5t-66.5 -105.5t-100.5 -67.5t-126.5 -23.5q-141 0 -217 86t-76 233v619h-157v-658zM346 1219h131l154 137l154 -137h135l-217 268h-140z
" />
    <glyph glyph-name="udieresis" unicode="&#xfc;" horiz-adv-x="1261" 
d="M160 401q0 -94 27.5 -171.5t79.5 -134t127 -87.5t171 -31q137 0 223 60.5t140 146.5v-184h155v1059h-155v-606q0 -74 -24.5 -135.5t-66.5 -105.5t-100.5 -67.5t-126.5 -23.5q-141 0 -217 86t-76 233v619h-157v-658zM361 1219h184v194h-184v-194zM721 1219h184v194h-184
v-194z" />
    <glyph glyph-name="yacute" unicode="&#xfd;" horiz-adv-x="1210" 
d="M70 1059l481 -1055q-47 -113 -96 -156t-121 -43q-51 0 -89 9.5t-77 29.5l-53 -125q53 -27 106 -40t119 -13q119 0 202 67.5t150 231.5l445 1094h-168l-340 -883l-385 883h-174zM547 1213h127l231 221l-164 76z" />
    <glyph glyph-name="thorn" unicode="&#xfe;" horiz-adv-x="1359" 
d="M176 -328h158v531q31 -45 70.5 -86t89 -72t111 -49.5t134.5 -18.5q96 0 187.5 38t162 109t113.5 173t43 233t-43 233.5t-114.5 173.5t-162.5 107.5t-186 36.5q-74 0 -134 -19.5t-109.5 -51t-89 -74.5t-72.5 -90v649h-158v-1823zM328 530q0 92 31.5 168t86 129.5t123 83
t142.5 29.5q76 0 143.5 -28.5t118.5 -83t80.5 -130.5t29.5 -170q0 -96 -29.5 -172.5t-79.5 -129t-119 -80t-144 -27.5q-74 0 -142.5 29.5t-123 83t-86 130t-31.5 168.5z" />
    <glyph glyph-name="ydieresis" unicode="&#xff;" horiz-adv-x="1210" 
d="M70 1059l481 -1055q-47 -113 -96 -156t-121 -43q-51 0 -89 9.5t-77 29.5l-53 -125q53 -27 106 -40t119 -13q119 0 202 67.5t150 231.5l445 1094h-168l-340 -883l-385 883h-174zM334 1219h184v194h-184v-194zM694 1219h184v194h-184v-194z" />
    <glyph glyph-name="OE" unicode="&#x152;" horiz-adv-x="2316" 
d="M139 715q0 -152 55.5 -283t157 -227t240.5 -150.5t309 -54.5h1292v147h-847v502h745v148h-745v489h837v148h-1282q-170 0 -309 -55.5t-240.5 -153t-157 -228.5t-55.5 -282zM307 719q0 119 42 222t119 180t187.5 120t245.5 43h283v-1134h-283q-135 0 -245.5 44
t-187.5 120.5t-119 180t-42 224.5z" />
    <glyph glyph-name="oe" unicode="&#x153;" horiz-adv-x="2148" 
d="M111 526q0 -113 42 -213t114.5 -175t172 -119t213.5 -44q160 0 281.5 80t187.5 207q63 -135 185.5 -211t269.5 -76q150 0 253 54.5t181 144.5l-98 88q-66 -68 -144.5 -108.5t-189.5 -40.5q-70 0 -133.5 23.5t-113.5 69.5t-82.5 112.5t-41.5 152.5h838q2 14 2 27v22
q0 117 -33 219.5t-96.5 178t-153.5 119.5t-206 44q-147 0 -261 -77.5t-174 -206.5q-66 127 -186.5 205.5t-278.5 78.5q-117 0 -217 -44t-173.5 -119.5t-115.5 -177t-42 -214.5zM272 530q0 86 29 161t79 131.5t120.5 88t156.5 31.5q82 0 154 -32.5t124 -89t82 -132.5t30 -162
t-29 -160.5t-79 -130t-120.5 -87t-156.5 -31.5q-84 0 -155 32.5t-123 88t-82 131t-30 161.5zM1206 588q8 78 37 143.5t74 113.5t105.5 75.5t129.5 27.5q78 0 138.5 -29.5t102.5 -78.5t65.5 -115t29.5 -137h-682z" />
    <glyph glyph-name="Ydieresis" unicode="&#x178;" horiz-adv-x="1466" 
d="M55 1434l596 -867v-567h164v569l596 865h-188l-488 -717l-483 717h-197zM461 1555h184v194h-184v-194zM821 1555h184v194h-184v-194z" />
    <glyph glyph-name="circumflex" unicode="&#x2c6;" horiz-adv-x="1024" 
d="M225 1219h131l154 137l154 -137h135l-217 268h-140z" />
    <glyph glyph-name="tilde" unicode="&#x2dc;" horiz-adv-x="1024" 
d="M176 1227l96 -27q23 55 44.5 77.5t62.5 22.5q27 0 59.5 -13t69.5 -28.5t73.5 -27.5t71.5 -12q74 0 119 49t76 166l-96 26q-23 -55 -44.5 -77.5t-62.5 -22.5q-27 0 -59.5 12t-69.5 27.5t-73.5 29t-71.5 13.5q-74 0 -119 -49.5t-76 -165.5z" />
    <glyph glyph-name="uni2000" unicode="&#x2000;" horiz-adv-x="929" 
 />
    <glyph glyph-name="uni2001" unicode="&#x2001;" horiz-adv-x="1858" 
 />
    <glyph glyph-name="uni2002" unicode="&#x2002;" horiz-adv-x="929" 
 />
    <glyph glyph-name="uni2003" unicode="&#x2003;" horiz-adv-x="1858" 
 />
    <glyph glyph-name="uni2004" unicode="&#x2004;" horiz-adv-x="619" 
 />
    <glyph glyph-name="uni2005" unicode="&#x2005;" horiz-adv-x="464" 
 />
    <glyph glyph-name="uni2006" unicode="&#x2006;" horiz-adv-x="309" 
 />
    <glyph glyph-name="uni2007" unicode="&#x2007;" horiz-adv-x="309" 
 />
    <glyph glyph-name="uni2008" unicode="&#x2008;" horiz-adv-x="232" 
 />
    <glyph glyph-name="uni2009" unicode="&#x2009;" horiz-adv-x="371" 
 />
    <glyph glyph-name="uni200A" unicode="&#x200a;" horiz-adv-x="103" 
 />
    <glyph glyph-name="uni2010" unicode="&#x2010;" horiz-adv-x="835" 
d="M133 532h569v166h-569v-166z" />
    <glyph glyph-name="uni2011" unicode="&#x2011;" horiz-adv-x="835" 
d="M133 532h569v166h-569v-166z" />
    <glyph glyph-name="figuredash" unicode="&#x2012;" horiz-adv-x="835" 
d="M133 532h569v166h-569v-166z" />
    <glyph glyph-name="endash" unicode="&#x2013;" horiz-adv-x="1081" 
d="M133 537h815v157h-815v-157z" />
    <glyph glyph-name="emdash" unicode="&#x2014;" horiz-adv-x="1839" 
d="M133 537h1573v157h-1573v-157z" />
    <glyph glyph-name="quoteleft" unicode="&#x2018;" horiz-adv-x="501" 
d="M147 979h189v215h-76q-4 66 27.5 107.5t109.5 70.5l-24 72q-117 -27 -171.5 -91.5t-54.5 -189.5v-184z" />
    <glyph glyph-name="quoteright" unicode="&#x2019;" horiz-adv-x="501" 
d="M104 1040l25 -71q117 27 172 91t55 189v185h-188v-215h74q6 -66 -27 -108t-111 -71z" />
    <glyph glyph-name="quotesinglbase" unicode="&#x201a;" horiz-adv-x="501" 
d="M94 -178l25 -72q117 27 172 91.5t55 189.5v184h-188v-215h73q6 -66 -26.5 -107.5t-110.5 -70.5z" />
    <glyph glyph-name="quotedblleft" unicode="&#x201c;" horiz-adv-x="911" 
d="M147 979h189v215h-76q-4 66 27.5 107.5t109.5 70.5l-24 72q-117 -27 -171.5 -91.5t-54.5 -189.5v-184zM557 979h186v215h-73q-4 66 27.5 107.5t109.5 70.5l-25 72q-117 -27 -171 -91.5t-54 -189.5v-184z" />
    <glyph glyph-name="quotedblright" unicode="&#x201d;" horiz-adv-x="911" 
d="M104 1040l25 -71q117 27 172 91t55 189v185h-188v-215h74q6 -66 -27 -108t-111 -71zM514 1040l25 -71q117 27 171 91t54 189v185h-186v-215h73q6 -66 -26.5 -108t-110.5 -71z" />
    <glyph glyph-name="quotedblbase" unicode="&#x201e;" horiz-adv-x="911" 
d="M94 -178l25 -72q117 27 172 91.5t55 189.5v184h-188v-215h73q6 -66 -26.5 -107.5t-110.5 -70.5zM504 -178l24 -72q117 27 171.5 91.5t54.5 189.5v184h-187v-215h74q6 -66 -26.5 -107.5t-110.5 -70.5z" />
    <glyph glyph-name="bullet" unicode="&#x2022;" horiz-adv-x="978" 
d="M221 721q0 -55 21.5 -104.5t57.5 -85t85 -57t104 -21.5t104.5 21.5t85.5 57t57.5 85t21.5 104.5t-21.5 104t-57.5 85t-85 57.5t-105 21.5q-55 0 -104 -21.5t-85 -57.5t-57.5 -85t-21.5 -104z" />
    <glyph glyph-name="ellipsis" unicode="&#x2026;" horiz-adv-x="1480" 
d="M158 0h182v211h-182v-211zM649 0h182v211h-182v-211zM1141 0h184v211h-184v-211z" />
    <glyph glyph-name="uni202F" unicode="&#x202f;" horiz-adv-x="371" 
 />
    <glyph glyph-name="guilsinglleft" unicode="&#x2039;" horiz-adv-x="671" 
d="M98 522l332 -438l121 70l-277 378l277 375l-121 68l-332 -436v-17z" />
    <glyph glyph-name="guilsinglright" unicode="&#x203a;" horiz-adv-x="671" 
d="M121 152l119 -68l331 438v17l-331 436l-119 -70l276 -377z" />
    <glyph glyph-name="uni205F" unicode="&#x205f;" horiz-adv-x="464" 
 />
    <glyph glyph-name="trademark" unicode="&#x2122;" horiz-adv-x="1413" 
d="M53 1348h203v-545h90v545h203v86h-496v-86zM688 803h90v483l223 -342h13l225 342v-483h88v631h-94l-223 -347l-226 347h-96v-631z" />
    <glyph glyph-name="uni25FC" unicode="&#x25fc;" horiz-adv-x="1054" 
d="M0 0v1055h1055v-1055h-1055z" />
    <glyph glyph-name="uniFB01" unicode="&#xfb01;" horiz-adv-x="1292" 
d="M90 920h146v-920h157v920h334v135h-336v86q0 225 184 225q41 0 76 -7t78 -20v138q-39 14 -79 20t-95 6q-154 0 -236.5 -90t-82.5 -264v-92h-146v-137zM932 1290h180v174h-180v-174zM944 0h156v1059h-156v-1059z" />
    <glyph glyph-name="uniFB02" unicode="&#xfb02;" horiz-adv-x="1292" 
d="M90 920h146v-920h157v920h334v135h-336v86q0 225 184 225q41 0 76 -7t78 -20v138q-39 14 -79 20t-95 6q-154 0 -236.5 -90t-82.5 -264v-92h-146v-137zM944 0h156v1495h-156v-1495z" />
    </font>
</defs>
</svg>
